Aktualizacje seriali
 

      
Gadżet: Smycze UFS
 



Ogłoszenia
UFS - dotacje
Dotacje SMS
Jak korzystać z forumowej szukajki



Pokaż wyniki od 1 do 2 z 2

Wątek: Vikings [S04E016][2013][HDTV][720p][x264][ENG]

  1. #1
    CHELSEA LONDYN & BROOKLYN NETS <3 Awatar Pumbek
     Info : 
    Dołączył
    Jan 2007
    Skąd
    ZCH
    Posty
    4,291
     Podziękowania : 
    Podziękował: 751
    Doceniono: 21,675 razy w 516 postach
     UFS Stats Uploady : 
    Filmy: 566
    Gry: 198
    Programy: 17
    TV's: 157
    Muzyka: 70
    Porno: 15
    Inne: 7
    Małe uploady: 7
     UFS Stats Konta : 
    Gmail: 107
    Inne: 124
     Total Upload : 
    P2M UP: 4741.2 GB
     Total CA : 
    Total CA: 15070 AC
    Pumbek jest nieaktywny

    m4ud Vikings [S04E016][2013][HDTV][720p][x264][ENG]

    Vikings

    Wikingowie




    Gatunek: Dramat historyczny
    Ocena: 8,5/10



    'Vikings' opowiada historię Ragnara Lothbroka oraz jego braci i rodziny. Serial ukazuje jak Ragnar staje się królem wikińskich plemion. Poza byciem nieustraszonym wojownikiem, Ragnar jest ucieleśnieniem nordyckiej tradycji i oddania się bogom. Legenda mówi, że jest on bezpośrednim potomkiem Odyna, boga wojny i wojowników.



    Travis Fimmel - Ragnar Lothbrok
    Katheryn Winnick - Lagertha Lothbrok
    Clive Standen - Rollo
    Jessalyn Gilsig - Siggy Haraldson
    Gustaf Skarsgĺrd - Floki
    George Blagden - Athelstan
    Nathan O'Toole - Młody Bjřrn Lothbrok
    Donal Logue - Król Horik








    File size : 905 MiB
    Duration : 42mn 58s
    Overall bit rate : 2 944 Kbps
    Writing application : x264.exe
    Writing library : mkv2rls x264-tv version built on 2016.10.12

    Video
    ID : 1
    Format : AVC
    Format/Info : Advanced Video Codec
    Format profile : High@L4.1
    Format settings, CABAC : Yes
    Format settings, ReFrames : 5 frames
    Codec ID : V_MPEG4/ISO/AVC
    Duration : 42mn 58s
    Bit rate : 2 501 Kbps
    Width : 1 280 pixels
    Height : 720 pixels
    Display aspect ratio : 16:9
    Frame rate mode : Constant
    Frame rate : 23.976 fps
    Color space : YUV
    Chroma subsampling : 4:2:0
    Bit depth : 8 bits
    Scan type : Progressive
    Bits/(Pixel*Frame) : 0.113
    Stream size : 769 MiB (85%)
    Writing library : x264 core 148 r2744 b97ae06
    Language : English
    Default : Yes
    Forced : No

    Audio
    ID : 2
    Format : AC-3
    Format/Info : Audio Coding 3
    Mode extension : CM (complete main)
    Format settings, Endianness : Big
    Codec ID : A_AC3
    Duration : 42mn 58s
    Bit rate mode : Constant
    Bit rate : 384 Kbps
    Channel(s) : 6 channels
    Channel positions : Front: L C R, Side: L R, LFE
    Sampling rate : 48.0 KHz
    Compression mode : Lossy
    Stream size : 118 MiB (13%)
    Language : English
    Default : Yes
    Forced : No

    Text
    ID : 3
    Format : UTF-8
    Codec ID : S_TEXT/UTF8
    Codec ID/Info : UTF-8 Plain Text
    Title : English
    Language : English
    Default : No
    Forced : No




    Nazwa pliku: Vikings.S04E16.720p.HDTV.x264.mkv
    Rozmiar uploadu: 904 MB
    Rozmiar segmentu: 20 MB
    Ilość segmentów: 46
    Liczba mirrorów: 10


    Masz problem z programem M4UDownloader? Zajrzyj do działu Poradniki & FAQ tego programu.

    Zawartość Ukryta. Kliknij "PODZIĘKUJ" żeby zobaczyć hashcode. (ikonka browara)


    Upload wykonany w M4UDownloader 2.3.1
    Release wykonany w McReleaser 2.65
    Ostatnio edytowane przez Melman ; 08-01-2017 o 12:07 Powód: [E16]
    ..::Member -> Full Member -> UFS Trial -> UFS Kreator -> Full Member -> UFS Uploader -> Super Uploader -> UFS Elite -> SUPER VIP -> UFS Elite -> Moderator -> Super Moderator -> UFS MASTER ->Super Moderator ->Retired -> Super Moderator -> Retired ::..

  2. Liczba osób które doceniły autora: 141


  3.    Sponsored Links




  4. #2
    Awatar JRK
     Info : 
    Dołączył
    Nov 2007
    Posty
    7,496
     Podziękowania : 
    Podziękował: 2,541
    Doceniono: 16,360 razy w 520 postach
     UFS Stats Uploady : 
    Filmy: 438
    Gry: 51
    Programy: 41
    TV's: 6
    Muzyka: 40
    Inne: 15
     UFS Stats Konta : 
    Gmail: 79
    Inne: 177
     Total Upload : 
    P2M UP: 2723.6 GB
     Total CA : 
    Total CA: 8275 AC
    JRK jest nieaktywny

    Domyślnie

    niezatwierdzone
    Member > Full Member > User > Power User > Tester > Uploader > Extreme Uploader > Moderator > Moderator >Super Moderator > Master > Administrator




Informacje o wątku

Użytkownicy przeglądający ten wątek

Aktualnie 1 użytkownik(ów) przegląda ten wątek. (0 zarejestrowany(ch) oraz 1 gości)

Podobne wątki

  1. 20GB Vikings [Sezon 4][2013][HDTV][720p][x264][AC3][ENG]
    Przez Parcatras w dziale Pełne Sezony [Dział od rangi Full Member]
    Odpowiedzi: 1
    Ostatni post / autor: 22-09-2016, 14:07
  2. 12GB Vikings [SEZON 1][2013][HDTV][720p][ENG]
    Przez d3 w dziale Pełne Sezony [Dział od rangi Full Member]
    Odpowiedzi: 1
    Ostatni post / autor: 09-03-2014, 18:22
  3. Vikings [Sezon 1][2013][HDTV][720p][x264][AC3][ENG]
    Przez Ethayer w dziale Pełne Sezony [Dział od rangi Full Member]
    Odpowiedzi: 16
    Ostatni post / autor: 09-05-2013, 10:07

Uprawnienia umieszczania postów

  • Nie możesz zakładać nowych tematów
  • Nie możesz pisać wiadomości
  • Nie możesz dodawać załączników
  • Nie możesz edytować swoich postów
  •