Aktualizacje seriali
 

      
Gadżet: Smycze UFS
 



Ogłoszenia
UFS - dotacje
Dotacje SMS
Jak korzystać z forumowej szukajki



Pokaż wyniki od 1 do 2 z 2

Wątek: Padre nuestro [2007][DVDRip][AC3][ENG][Napisy PL]

  1. #1
    CHELSEA LONDYN & BROOKLYN NETS <3 Awatar Pumbek
     Info : 
    Dołączył
    Jan 2007
    Skąd
    ZCH
    Posty
    4,195
     Podziękowania : 
    Podziękował: 744
    Doceniono: 18,105 razy w 468 postach
     UFS Stats Uploady : 
    Filmy: 561
    Gry: 198
    Programy: 15
    TV's: 125
    Muzyka: 66
    Porno: 14
    Inne: 7
    Małe uploady: 7
     UFS Stats Konta : 
    Gmail: 107
    Inne: 124
     Total Upload : 
    P2M UP: 4462.5 GB
     Total CA : 
    Total CA: 15070 AC
    Pumbek jest nieaktywny

    m4ud Padre nuestro [2007][DVDRip][AC3][ENG][Napisy PL]

    Padre nuestro

    Ojcze nasz. Krew z krwi




    Reżyseria: Christopher Zalla
    Scenariusz: Christopher Zalla
    Gatunek: Dramat, Thriller
    Produkcja: Argentyna, USA
    Premiera: 19 czerwca 2009 (Polska) 20 stycznia 2007 (świat)
    Ocena: 6,9 / 10
    Muzyka: Brian Cullman
    Zdjęcia: Igor Martinovic
    Dystrybucja: Vivarto




    Nastoletni imigrant z Meksyku przybywa do Nowego Jorku, by odnaleźć ojca. Na miejscu spotyka oszusta, który kradnie mu tożsamość.

    Znakomity debiut o środowisku nielegalnych imigrantów z Meksyku w USA oraz o skradzionej tożsamości. Ta prowokująca historia to również dogłębna analiza człowieka pragnącego być kochanym. Juan i Pedro spotykają się w ciężarówce pełnej meksykańskich imigrantów jadących bez dokumentów do Nowego Jorku. Pedro pokazuje Juanowi zapieczętowany list od matki i opowiada nowemu przyjacielowi, że jedzie na pierwsze spotkanie ze swoim ojcem Diego, bogatym restauratorem, którego dotąd nie wiedział. Niestety, rano budzi się okradziony, ląduje na ulicy, jest kompletnie zagubiony w obcym mieście. Tymczasem Juan pojawia się u Diego z listem, twierdząc, że jest jego synem... "Ojcze nasz" to znakomity przykład amerykańskiego kina niezależnego rodem z Sundance charakteryzujący się szybkim tempem i niespodziewanymi zwrotami akcji.



    Diego - Jesús Ochoa
    Juan - Armando Hernández
    Pedro - Jorge Espíndola
    Magda - Paola Mendoza
    Anibal - Eugenio Derbez
    Policjant - Sean Andrew
    Simon - Leonardo Anzures
    Brygadzista - Luis Antonio Aponte







    Format : AVI
    Format/Info : Audio Video Interleave
    File size : 1.37 GiB
    Duration : 1h 51mn
    Overall bit rate : 1 760 Kbps
    Writing application : Nandub v1.0rc2
    Writing library : Nandub build 1852/release

    Video
    ID : 0
    Format : MPEG-4 Visual
    Format profile : Advanced Simple@L5
    Format settings, BVOP : No
    Format settings, QPel : No
    Format settings, GMC : No warppoints
    Format settings, Matrix : Custom
    Codec ID : XVID
    Codec ID/Hint : XviD
    Duration : 1h 51mn
    Bit rate : 1 526 Kbps
    Width : 720 pixels
    Height : 320 pixels
    Display aspect ratio : 2.25:1
    Frame rate : 25.000 fps
    Color space : YUV
    Chroma subsampling : 4:2:0
    Bit depth : 8 bits
    Scan type : Progressive
    Compression mode : Lossy
    Bits/(Pixel*Frame) : 0.265
    Stream size : 1.19 GiB (87%)
    Writing library : XviD 1.1.2 (UTC 2006-11-01)

    Audio
    ID : 1
    Format : AC-3
    Format/Info : Audio Coding 3
    Mode extension : CM (complete main)
    Format settings, Endianness : Big
    Codec ID : 2000
    Duration : 1h 51mn
    Bit rate mode : Constant
    Bit rate : 224 Kbps
    Channel(s) : 6 channels
    Channel positions : Front: L C R, Side: L R, LFE
    Sampling rate : 48.0 KHz
    Compression mode : Lossy
    Stream size : 178 MiB (13%)
    Alignment : Split accross interleaves
    Interleave, duration : 40 ms (1.00 video frame)
    Interleave, preload duration : 500 ms




    Nazwa uploadu: Padre nuestro
    Nazwa pliku: Padre nuestro.rar
    Rozmiar uploadu: 1533 MB
    Rozmiar segmentu: 20 MB
    Ilość segmentów: 77
    Liczba mirrorów: 10
    Hasło: www.ufs.pt

    Masz problem z programem M4UDownloader? Zajrzyj do działu Poradniki & FAQ tego programu.


    Zawartość Ukryta. Kliknij "PODZIĘKUJ" żeby zobaczyć hashcode. (ikonka browara)

    Upload zawiera 10% danych naprawczych!
    Jak korzystać z danych naprawczych? Tutaj znajdziesz poradnik!
    Upload wykonany w M4UD 2.3.0
    Ostatnio edytowane przez Pumbek ; 08-01-2017 o 09:54
    ..::Member -> Full Member -> UFS Trial -> UFS Kreator -> Full Member -> UFS Uploader -> Super Uploader -> UFS Elite -> SUPER VIP -> UFS Elite -> Moderator -> Super Moderator -> UFS MASTER ->Super Moderator ->Retired -> Super Moderator -> Retired ::..

  2. Liczba osób które doceniły autora: 46


  3.    Sponsored Links




  4. #2
    Awatar JRK
     Info : 
    Dołączył
    Nov 2007
    Posty
    7,531
     Podziękowania : 
    Podziękował: 2,540
    Doceniono: 16,189 razy w 518 postach
     UFS Stats Uploady : 
    Filmy: 437
    Gry: 51
    Programy: 41
    TV's: 6
    Muzyka: 40
    Inne: 15
     UFS Stats Konta : 
    Gmail: 79
    Inne: 174
     Total Upload : 
    P2M UP: 2723.5 GB
     Total CA : 
    Total CA: 8250 AC
    JRK jest nieaktywny

    Domyślnie

    niezatwierdzone
    Member > Full Member > User > Power User > Tester > Uploader > Extreme Uploader > Moderator > Moderator >Super Moderator > Master > Administrator




Informacje o wątku

Użytkownicy przeglądający ten wątek

Aktualnie 1 użytkownik(ów) przegląda ten wątek. (0 zarejestrowany(ch) oraz 1 gości)

Podobne wątki

  1. 1GB Botched [2007][DVDRip][AC3][ENG][Napisy PL]
    Przez siwy2866 w dziale HQ (High Quality - Wysoka Jakość)
    Odpowiedzi: 1
    Ostatni post / autor: 24-02-2016, 15:15
  2. 0.7GB Pecados de mi padre [2009][DVDRip][ENG]
    Przez Mnichu w dziale HQ (High Quality - Wysoka Jakość)
    Odpowiedzi: 1
    Ostatni post / autor: 17-04-2014, 15:45

Uprawnienia umieszczania postów

  • Nie możesz zakładać nowych tematów
  • Nie możesz pisać wiadomości
  • Nie możesz dodawać załączników
  • Nie możesz edytować swoich postów
  •