Aktualizacje seriali
 



Ogłoszenia
UFS - dotacje
Dotacje SMS
Jak korzystać z forumowej szukajki



Pokaż wyniki od 1 do 2 z 2

Wątek: Wykolejona [2015][BDRip][720p][AC3][LEK-PL]

  1. #1
    Gdzie są pieniądze za las?! Awatar Stachu
     Info : 
    Dołączył
    Oct 2007
    Skąd
    Köln
    Posty
    9,415
     Podziękowania : 
    Podziękował: 243
    Doceniono: 37,528 razy w 1,149 postach
     UFS Stats Uploady : 
    Filmy: 892
    Gry: 597
    Programy: 14
    TV's: 297
    Muzyka: 87
    Porno: 69
    Inne: 66
    Małe uploady: 12
     UFS Stats Konta : 
    Gmail: 205
    Inne: 648
     Total Upload : 
    P2M UP: 8184.15 GB
     Total CA : 
    Total CA: 14861 AC
     Total HTTP Upload : 
    HTTP UP: 0.7 GB
    Stachu jest nieaktywny

    MD Wykolejona [2015][BDRip][720p][AC3][LEK-PL]

    Wykolejona

    Trainwreck




    Gatunek: Komedia
    Produkcja: USA
    Premiera: 31 lipca 2015 (Polska) 16 marca 2015 (świat)
    Reżyseria: Judd Apatow
    Scenariusz: Amy Schumer
    Ocena: 5,8/10



    Judd Apatow, reżyser 'Wpadki' i '40-letniego prawiczka', przedstawia historię młodej kobiety, której życie wypełnia fantastyczna praca marzeń i bogate życie towarzyskie, jest popularna, zamożna, każdy chciałby być na jej miejscu. Ale jej życie osobiste to katastrofa. Prawdziwa katastrofa.



    Amy Schumer - Amy
    Bill Hader - Aaron
    Brie Larson - Kim
    Colin Quinn - Gordon
    John Cena - Steven
    Vanessa Bayer - Nikki
    Mike Birbiglia - Tom
    Ezra Miller - Donald








    Spoiler: 

    Format : AVI
    Format/Info : Audio Video Interleave
    Format profile : OpenDML
    File size : 3.45 GiB
    Duration : 2h 4mn
    Overall bit rate : 3 956 Kbps
    Writing application : VirtualDubMod 1.5.10.3 | www.virtualdub-fr.org || (build 2550/release)
    Writing library : VirtualDubMod build 2550/release

    Video
    ID : 0
    Format : MPEG-4 Visual
    Format profile : Advanced Simple@L5
    Format settings, BVOP : 2
    Format settings, QPel : No
    Format settings, GMC : No warppoints
    Format settings, Matrix : Default (H.263)
    Codec ID : XVID
    Codec ID/Hint : XviD
    Duration : 2h 4mn
    Bit rate : 3 499 Kbps
    Width : 1 280 pixels
    Height : 534 pixels
    Display aspect ratio : 2.40:1
    Frame rate : 23.976 fps
    Color space : YUV
    Chroma subsampling : 4:2:0
    Bit depth : 8 bits
    Scan type : Progressive
    Compression mode : Lossy
    Bits/(Pixel*Frame) : 0.213
    Stream size : 3.05 GiB (88%)
    Writing library : XviD 1.2.1 (UTC 2008-12-04)

    Audio
    ID : 1
    Format : AC-3
    Format/Info : Audio Coding 3
    Mode extension : CM (complete main)
    Format settings, Endianness : Big
    Codec ID : 2000
    Duration : 2h 4mn
    Bit rate mode : Constant
    Bit rate : 448 Kbps
    Channel(s) : 6 channels
    Channel positions : Front: L C R, Side: L R, LFE
    Sampling rate : 48.0 KHz
    Compression mode : Lossy
    Stream size : 400 MiB (11%)
    Alignment : Split accross interleaves
    Interleave, duration : 42 ms (1.00 video frame)
    Interleave, preload duration : 500 ms




    Nazwa pliku: Trainwreck.2015.PL.720p.BDRip.XviD.AC3-WiZARDS
    Wielkość uploadu: 3882 MB
    Uploader: Stachu
    Upload dla: www.ufs.pt
    Ilość segmentów: 195
    Ilość kont: 8

    Hasło: www.ufs.pt

    Masz problem z programem MailDownloader? Zajrzyj do działu Poradniki & FAQ tego programu.

    Zawartość Ukryta. Kliknij "PODZIĘKUJ" żeby zobaczyć hashcode. (ikonka browara)

    Upload zawiera 10% danych naprawczych!
    Jak korzystać z danych naprawczych? Tutaj znajdziesz poradnik!


    Upload wykonany w MailDownloader 0.40b
    Release wykonany w McReleaser 2.61
    Member -> Full Member -> UFS Trial -> UFS Uploader -> UFS Elite -> Moderator -> UFS Elite -> Super Vip -> Elite Kreator -> Elite Uploader -> Super Vip -> Elite Uploader -> Super Vip
    Intel Core i5 2500 3.3GHz
    SilentiumPC
    Asus H61
    Kingston HyperX 16GB DDR3 1600MHz
    Seagate 500GB
    Toshiba 320GB
    Seagate Desktop HDD 2TB
    GoodRam SSD 120GB
    Gigabyte GeForce 1060 6GB XTreme OC
    Nagrywarka Asus
    Thermaltake Modular SE 530W
    Zalman 3 Plus White



  2. Liczba osób które doceniły autora: 63


  3.    Sponsored Links




  4. #2
    Retired Awatar ZielonY
     Info : 
    Dołączył
    Dec 2013
    Skąd
    ja to znam?
    Posty
    7,742
     Podziękowania : 
    Podziękował: 3,103
    Doceniono: 13,583 razy w 267 postach
     UFS Stats Uploady : 
    Filmy: 144
    Gry: 9
    Programy: 1
    TV's: 19
    Muzyka: 13
    Porno: 2
    Małe uploady: 1
     UFS Stats Konta : 
    Gmail: 28
    Inne: 167
     Total Upload : 
    P2M UP: 1030.38 GB
     Total CA : 
    Total CA: 6695 AC
    ZielonY jest nieaktywny

    Domyślnie

    Ostatnio edytowane przez ZielonY ; 11-01-2016 o 14:46

    Member > Full Member > UFS Trial > UFS Uploader > Super Uploader > UFS Elite > Super Vip > UFS Elite >Moderator > Super Moderator > Retired

Informacje o wątku

Użytkownicy przeglądający ten wątek

Aktualnie 1 użytkownik(ów) przegląda ten wątek. (0 zarejestrowany(ch) oraz 1 gości)

Podobne wątki

  1. 9.5GB Wykolejona [2015][Blu-Ray][720p][x264][AC3/DTS][LEK-PL][Napisy PL]
    Przez Dziadek mróz w dziale Filmy High Definition [Dział od rangi Full Member]
    Odpowiedzi: 1
    Ostatni post / autor: 02-12-2015, 11:04
  2. 12GB Wykolejona [2015][Blu-Ray][1080p][x264][AC3/DTS][LEK-PL/ENG][Napisy PL]
    Przez Dziadek mróz w dziale Filmy High Definition [Dział od rangi Full Member]
    Odpowiedzi: 1
    Ostatni post / autor: 02-12-2015, 11:04
  3. 3.5GB Wykolejona [2015][BDRip][720p][AC3][LEK-PL]
    Przez Dziadek mróz w dziale Filmy High Definition [Dział od rangi Full Member]
    Odpowiedzi: 1
    Ostatni post / autor: 14-11-2015, 22:18

Uprawnienia umieszczania postów

  • Nie możesz zakładać nowych tematów
  • Nie możesz pisać wiadomości
  • Nie możesz dodawać załączników
  • Nie możesz edytować swoich postów
  •