Aktualizacje seriali
 



Ogłoszenia
UFS - dotacje
Dotacje SMS
Jak korzystać z forumowej szukajki



Pokaż wyniki od 1 do 2 z 2

Wątek: Mission: Impossible - Rogue Nation [2015][BDRip][720p][AC3][LEK-PL]

  1. #1
    Gdzie są pieniądze za las?! Awatar Stachu
     Info : 
    Dołączył
    Oct 2007
    Skąd
    Köln
    Posty
    9,414
     Podziękowania : 
    Podziękował: 243
    Doceniono: 37,503 razy w 1,148 postach
     UFS Stats Uploady : 
    Filmy: 892
    Gry: 597
    Programy: 14
    TV's: 297
    Muzyka: 87
    Porno: 69
    Inne: 66
    Małe uploady: 12
     UFS Stats Konta : 
    Gmail: 205
    Inne: 648
     Total Upload : 
    P2M UP: 8184.15 GB
     Total CA : 
    Total CA: 14861 AC
     Total HTTP Upload : 
    HTTP UP: 0.7 GB
    Stachu jest nieaktywny

    MD Mission: Impossible - Rogue Nation [2015][BDRip][720p][AC3][LEK-PL]

    Mission: Impossible - Rogue Nation



    Gatunek: Sensacyjny
    Produkcja: USA
    Premiera: 7 sierpnia 2015 (Polska) 23 lipca 2015 (świat)
    Reżyseria: Christopher McQuarrie
    Scenariusz: Christopher McQuarrie
    Ocena: 6,9/10



    Ethan Hunt (Tom Cruise), agent elitarnej rządowej jednostki Impossible Missions Force, po raz kolejny udowodni, że nie ma dla niego misji niemożliwej. Po rozwiązaniu IMF, Ethan (Tom Cruise) zostaje na lodzie, sam przeciw wysoko wyspecjalizowanej sieci agentów, Syndykatowi, który jest zdeterminowany, by zaprowadzić na świecie nowy porządek. Służyć ma temu eskalacja ataków terrorystycznych. Ethan, nie mając innego wyjścia, skrzykuje starą gwardię, by stawić czoła groźnemu Syndykatowi. Dołącza do nich zdyskredytowana agentka brytyjskiego wywiadu, która może, ale nie musi, stać po stronie IMF. Tak rozpoczyna się najbardziej nieprawdopodobna misja. Mission: Impossible.



    Tom Cruise - Ethan Hunt
    Jeremy Renner - William Brandt
    Simon Pegg - Benji Dunn
    Rebecca Ferguson - Ilsa Faust
    Ving Rhames - Luther Stickell
    Alec Baldwin - Alan Hunley
    Sean Harris - Solomon Lane
    Simon McBurney - Atlee









    Spoiler: 

    Format : AVI
    Format/Info : Audio Video Interleave
    Format profile : OpenDML
    File size : 3.66 GiB
    Duration : 2h 11mn
    Overall bit rate : 3 988 Kbps
    Writing application : VirtualDubMod 1.5.10.2 (build 2542/release)
    Writing library : VirtualDubMod build 2542/release

    Video
    ID : 0
    Format : MPEG-4 Visual
    Format profile : Advanced Simple@L5
    Format settings, BVOP : 1
    Format settings, QPel : No
    Format settings, GMC : No warppoints
    Format settings, Matrix : Custom
    Codec ID : XVID
    Codec ID/Hint : XviD
    Duration : 2h 11mn
    Bit rate : 3 595 Kbps
    Width : 1 280 pixels
    Height : 536 pixels
    Display aspect ratio : 2.40:1
    Frame rate : 23.976 fps
    Color space : YUV
    Chroma subsampling : 4:2:0
    Bit depth : 8 bits
    Scan type : Progressive
    Compression mode : Lossy
    Bits/(Pixel*Frame) : 0.219
    Stream size : 3.30 GiB (90%)
    Writing library : XviD 73

    Audio
    ID : 1
    Format : AC-3
    Format/Info : Audio Coding 3
    Mode extension : CM (complete main)
    Format settings, Endianness : Big
    Codec ID : 2000
    Duration : 2h 11mn
    Bit rate mode : Constant
    Bit rate : 384 Kbps
    Channel(s) : 6 channels
    Channel positions : Front: L C R, Side: L R, LFE
    Sampling rate : 48.0 KHz
    Compression mode : Lossy
    Stream size : 361 MiB (10%)
    Alignment : Split accross interleaves
    Interleave, duration : 42 ms (1.00 video frame)
    Interleave, preload duration : 500 ms




    Nazwa pliku: Mission.Impossible.Rogue.Nation.2015.PL.720p.BDRip .XviD.AC3-WiZARDS
    Wielkość uploadu: 4126 MB
    Uploader: Stachu
    Upload dla: www.ufs.pt
    Ilość segmentów: 207
    Ilość kont: 9

    Hasło: www.ufs.pt

    Masz problem z programem MailDownloader? Zajrzyj do działu Poradniki & FAQ tego programu.

    Zawartość Ukryta. Kliknij "PODZIĘKUJ" żeby zobaczyć hashcode. (ikonka browara)

    Upload zawiera 10% danych naprawczych!
    Jak korzystać z danych naprawczych? Tutaj znajdziesz poradnik!


    Upload wykonany w MailDownloader 0.40b
    Release wykonany w McReleaser 2.61
    Member -> Full Member -> UFS Trial -> UFS Uploader -> UFS Elite -> Moderator -> UFS Elite -> Super Vip -> Elite Kreator -> Elite Uploader -> Super Vip -> Elite Uploader -> Super Vip
    Intel Core i5 2500 3.3GHz
    SilentiumPC
    Asus H61
    Kingston HyperX 16GB DDR3 1600MHz
    Seagate 500GB
    Toshiba 320GB
    Seagate Desktop HDD 2TB
    GoodRam SSD 120GB
    Gigabyte GeForce 1060 6GB XTreme OC
    Nagrywarka Asus
    Thermaltake Modular SE 530W
    Zalman 3 Plus White



  2. Liczba osób które doceniły autora: 112


  3.    Sponsored Links




  4. #2
    Retired Awatar ZielonY
     Info : 
    Dołączył
    Dec 2013
    Skąd
    ja to znam?
    Posty
    7,742
     Podziękowania : 
    Podziękował: 3,103
    Doceniono: 13,578 razy w 267 postach
     UFS Stats Uploady : 
    Filmy: 144
    Gry: 9
    Programy: 1
    TV's: 19
    Muzyka: 13
    Porno: 2
    Małe uploady: 1
     UFS Stats Konta : 
    Gmail: 28
    Inne: 167
     Total Upload : 
    P2M UP: 1030.38 GB
     Total CA : 
    Total CA: 6695 AC
    ZielonY jest nieaktywny

    Domyślnie

    Ostatnio edytowane przez ZielonY ; 11-01-2016 o 13:58

    Member > Full Member > UFS Trial > UFS Uploader > Super Uploader > UFS Elite > Super Vip > UFS Elite >Moderator > Super Moderator > Retired

Informacje o wątku

Użytkownicy przeglądający ten wątek

Aktualnie 1 użytkownik(ów) przegląda ten wątek. (0 zarejestrowany(ch) oraz 1 gości)

Podobne wątki

  1. 3.5GB Mission: Impossible - Rogue Nation [2015][BRRip][720p][AC3][LEK-PL]
    Przez RAZOM w dziale Filmy High Definition [Dział od rangi Full Member]
    Odpowiedzi: 1
    Ostatni post / autor: 17-11-2015, 18:03

Uprawnienia umieszczania postów

  • Nie możesz zakładać nowych tematów
  • Nie możesz pisać wiadomości
  • Nie możesz dodawać załączników
  • Nie możesz edytować swoich postów
  •