Aktualizacje seriali
 



Ogłoszenia
UFS - dotacje
Dotacje SMS
Jak korzystać z forumowej szukajki



Pokaż wyniki od 1 do 2 z 2

Wątek: Paranormal Activity: The Ghost Dimension [2015][BRRip][720p][AC3][ENG][Subbed PL]

  1. #1
    Gdzie są pieniądze za las?! Awatar Stachu
     Info : 
    Dołączył
    Oct 2007
    Skąd
    Köln
    Posty
    9,414
     Podziękowania : 
    Podziękował: 243
    Doceniono: 37,523 razy w 1,149 postach
     UFS Stats Uploady : 
    Filmy: 892
    Gry: 597
    Programy: 14
    TV's: 297
    Muzyka: 87
    Porno: 69
    Inne: 66
    Małe uploady: 12
     UFS Stats Konta : 
    Gmail: 205
    Inne: 648
     Total Upload : 
    P2M UP: 8184.15 GB
     Total CA : 
    Total CA: 14861 AC
     Total HTTP Upload : 
    HTTP UP: 0.7 GB
    Stachu jest nieaktywny

    MD Paranormal Activity: The Ghost Dimension [2015][BRRip][720p][AC3][ENG][Subbed PL]

    Paranormal Activity: The Ghost Dimension

    Paranormal Activity: Inny wymiar




    Reżyseria: Gregory Plotkin
    Scenariusz: Jason Pagan, Andrew Deutschman, Gavin Heffernan, Adam Robitel
    Gatunek: Horror
    Produkcja: USA
    Premiera: 30 października 2015 (Polska) 21 października 2015 (świat)
    Boxoffice: $78 099 553
    Ocena: 5,0 / 10
    Zdjęcia: John W. Rutland
    Dystrybucja: United International Pictures Sp z o.o.



    Katie wraz z rodziną próbuje ułożyć sobie życie w nowym miejscu. Niebawem kobieta odkrywa, że krążą za nią duchy.



    Ryan - Chris J. Murray
    Emily - Brit Shaw
    Leila - Ivy George
    Mike - Dan Gill
    Skyler - Olivia Taylor Dudley
    Katie - Chloe Csengery
    Kristi - Jessica Tyler Brown
    Kent - Don McManus








    Spoiler: 

    Format : AVI
    Format/Info : Audio Video Interleave
    Format profile : OpenDML
    File size : 2.82 GiB
    Duration : 1h 37mn
    Overall bit rate : 4 152 Kbps
    Writing application : VirtualDubMod 1.5.10.3 | www.virtualdub-fr.org || (build 2550/release)
    Writing library : VirtualDubMod build 2550/release

    Video
    ID : 0
    Format : MPEG-4 Visual
    Format profile : Advanced Simple@L5
    Format settings, BVOP : 2
    Format settings, QPel : No
    Format settings, GMC : No warppoints
    Format settings, Matrix : Default (H.263)
    Codec ID : XVID
    Codec ID/Hint : XviD
    Duration : 1h 37mn
    Bit rate : 3 501 Kbps
    Width : 1 280 pixels
    Height : 720 pixels
    Display aspect ratio : 16:9
    Frame rate : 23.976 fps
    Color space : YUV
    Chroma subsampling : 4:2:0
    Bit depth : 8 bits
    Scan type : Progressive
    Compression mode : Lossy
    Bits/(Pixel*Frame) : 0.158
    Stream size : 2.38 GiB (84%)
    Writing library : XviD 1.2.1 (UTC 2008-12-04)

    Audio
    ID : 1
    Format : AC-3
    Format/Info : Audio Coding 3
    Mode extension : CM (complete main)
    Format settings, Endianness : Big
    Codec ID : 2000
    Duration : 1h 37mn
    Bit rate mode : Constant
    Bit rate : 640 Kbps
    Channel(s) : 6 channels
    Channel positions : Front: L C R, Side: L R, LFE
    Sampling rate : 48.0 KHz
    Compression mode : Lossy
    Stream size : 446 MiB (15%)
    Alignment : Split accross interleaves
    Interleave, duration : 42 ms (1.00 video frame)
    Interleave, preload duration : 500 ms





    Nazwa pliku: Paranormal.Activity.The.Ghost.Dimension.2015.SUBBE D.PL.720p.BRRip.XviD.AC3-WiZARDS
    Wielkość uploadu: 3181 MB
    Uploader: Stachu
    Upload dla: www.ufs.pt
    Ilość segmentów: 160
    Ilość kont: 7

    Hasło: www.ufs.pt

    Masz problem z programem MailDownloader? Zajrzyj do działu Poradniki & FAQ tego programu.


    Zawartość Ukryta. Kliknij "PODZIĘKUJ" żeby zobaczyć hashcode. (ikonka browara)

    Upload zawiera 10% danych naprawczych!
    Jak korzystać z danych naprawczych? Tutaj znajdziesz poradnik!
    Upload wykonany w MD 0.40a
    Ostatnio edytowane przez Stachu ; 06-01-2016 o 00:39
    Member -> Full Member -> UFS Trial -> UFS Uploader -> UFS Elite -> Moderator -> UFS Elite -> Super Vip -> Elite Kreator -> Elite Uploader -> Super Vip -> Elite Uploader -> Super Vip
    Intel Core i5 2500 3.3GHz
    SilentiumPC
    Asus H61
    Kingston HyperX 16GB DDR3 1600MHz
    Seagate 500GB
    Toshiba 320GB
    Seagate Desktop HDD 2TB
    GoodRam SSD 120GB
    Gigabyte GeForce 1060 6GB XTreme OC
    Nagrywarka Asus
    Thermaltake Modular SE 530W
    Zalman 3 Plus White



  2. Liczba osób które doceniły autora: 55


  3.    Sponsored Links




  4. #2
    Awatar JRK
     Info : 
    Dołączył
    Nov 2007
    Posty
    7,425
     Podziękowania : 
    Podziękował: 2,541
    Doceniono: 16,715 razy w 517 postach
     UFS Stats Uploady : 
    Filmy: 438
    Gry: 51
    Programy: 41
    TV's: 6
    Muzyka: 40
    Inne: 15
    Małe uploady: 1
     UFS Stats Konta : 
    Gmail: 79
    Inne: 177
     Total Upload : 
    P2M UP: 2723.7 GB
     Total CA : 
    Total CA: 8275 AC
    JRK jest nieaktywny

    Domyślnie

    niezatwierdzone
    Ostatnio edytowane przez JRK ; 06-01-2016 o 08:46
    Member > Full Member > User > Power User > Tester > Uploader > Extreme Uploader > Moderator > Moderator >Super Moderator > Master > Administrator




Informacje o wątku

Użytkownicy przeglądający ten wątek

Aktualnie 1 użytkownik(ów) przegląda ten wątek. (0 zarejestrowany(ch) oraz 1 gości)

Uprawnienia umieszczania postów

  • Nie możesz zakładać nowych tematów
  • Nie możesz pisać wiadomości
  • Nie możesz dodawać załączników
  • Nie możesz edytować swoich postów
  •