Aktualizacje seriali
 



Ogłoszenia
UFS - dotacje
Dotacje SMS
Jak korzystać z forumowej szukajki



Pokaż wyniki od 1 do 2 z 2

Wątek: The Intern [2015][HDRip][ENG]

  1. #1
    Gdzie są pieniądze za las?! Awatar Stachu
     Info : 
    Dołączył
    Oct 2007
    Skąd
    Köln
    Posty
    9,414
     Podziękowania : 
    Podziękował: 243
    Doceniono: 37,497 razy w 1,148 postach
     UFS Stats Uploady : 
    Filmy: 892
    Gry: 597
    Programy: 14
    TV's: 297
    Muzyka: 87
    Porno: 69
    Inne: 66
    Małe uploady: 12
     UFS Stats Konta : 
    Gmail: 205
    Inne: 648
     Total Upload : 
    P2M UP: 8184.15 GB
     Total CA : 
    Total CA: 14861 AC
     Total HTTP Upload : 
    HTTP UP: 0.7 GB
    Stachu jest nieaktywny

    MD The Intern [2015][HDRip][ENG]

    The Intern

    Praktykant




    Reżyseria: Nancy Meyers
    Scenariusz: Nancy Meyers
    Gatunek: Komedia
    Produkcja: USA
    Premiera: 2 października 2015 (Polska) 21 września 2015 (świat)
    Boxoffice: $192 974 748
    Ocena: 7,4 / 10
    Muzyka: Theodore Shapiro
    Zdjęcia: Stephen Goldblatt
    Dystrybucja: Warner Bros. Entertainment Polska Sp. z o. o.
    Więcej informacji na: filmweb.pl



    Ben nie odkrywa uroków emerytury. Wkrótce rozpoczyna staż w redakcji strony internetowej o modzie.

    Robert De Niro gra w filmie Bena Whittakera, 70-letniego wdowca, który odkrył, że emerytura nie jest wcale taka wspaniała. Dlatego wykorzystuje nadarzającą się okazję, aby wrócić do aktywnego życia i zatrudnia się jako starszy stażysta w redakcji strony internetowej poświęconej modzie, założonej i prowadzonej przez Jules Ostin (Anne Hathaway).



    Ben - Robert De Niro
    Jules - Anne Hathaway
    Fiona - Rene Russo
    Matt - Anders Holm
    Paige - JoJo Kushner
    Cameron - Andrew Rannells
    Jason - Adam DeVine
    Davis - Zack Pearlman








    Spoiler: 

    Format : AVI
    Format/Info : Audio Video Interleave
    File size : 701 MiB
    Duration : 2h 1mn
    Overall bit rate : 805 Kbps
    Writing library : VirtualDub build 32618/release
    Copyright : SaM

    Video
    ID : 0
    Format : MPEG-4 Visual
    Format profile : Advanced Simple@L5
    Format settings, BVOP : 4
    Format settings, QPel : No
    Format settings, GMC : No warppoints
    Format settings, Matrix : Default (H.263)
    Muxing mode : Packed bitstream
    Codec ID : XVID
    Codec ID/Hint : XviD
    Duration : 2h 1mn
    Bit rate : 700 Kbps
    Width : 640 pixels
    Height : 352 pixels
    Display aspect ratio : 16:9
    Frame rate : 23.976 fps
    Color space : YUV
    Chroma subsampling : 4:2:0
    Bit depth : 8 bits
    Scan type : Progressive
    Compression mode : Lossy
    Bits/(Pixel*Frame) : 0.130
    Stream size : 609 MiB (87%)
    Writing library : XviD 65

    Audio
    ID : 1
    Format : MPEG Audio
    Format version : Version 1
    Format profile : Layer 3
    Mode : Joint stereo
    Mode extension : MS Stereo
    Codec ID : 55
    Codec ID/Hint : MP3
    Duration : 2h 1mn
    Bit rate mode : Constant
    Bit rate : 96.0 Kbps
    Channel(s) : 2 channels
    Sampling rate : 48.0 KHz
    Compression mode : Lossy
    Stream size : 83.4 MiB (12%)
    Alignment : Split accross interleaves
    Interleave, duration : 42 ms (1.00 video frame)
    Interleave, preload duration : 500 ms
    Writing library : LAME3.99r
    Encoding settings : -m j -V 4 -q 3 -lowpass 15.1 -b 96





    Nazwa pliku: The.Intern.2015.HDRip.XviD-ETRG
    Wielkość uploadu: 770 MB
    Uploader: Stachu
    Upload dla: www.ufs.pt
    Ilość segmentów: 39
    Ilość kont: 7

    Hasło: www.ufs.pt

    Masz problem z programem MailDownloader? Zajrzyj do działu Poradniki & FAQ tego programu.


    Zawartość Ukryta. Kliknij "PODZIĘKUJ" żeby zobaczyć hashcode. (ikonka browara)

    Upload zawiera 10% danych naprawczych!
    Jak korzystać z danych naprawczych? Tutaj znajdziesz poradnik!
    Upload wykonany w MD 0.40a
    Member -> Full Member -> UFS Trial -> UFS Uploader -> UFS Elite -> Moderator -> UFS Elite -> Super Vip -> Elite Kreator -> Elite Uploader -> Super Vip -> Elite Uploader -> Super Vip
    Intel Core i5 2500 3.3GHz
    SilentiumPC
    Asus H61
    Kingston HyperX 16GB DDR3 1600MHz
    Seagate 500GB
    Toshiba 320GB
    Seagate Desktop HDD 2TB
    GoodRam SSD 120GB
    Gigabyte GeForce 1060 6GB XTreme OC
    Nagrywarka Asus
    Thermaltake Modular SE 530W
    Zalman 3 Plus White



  2. Liczba osób które doceniły autora: 78


  3.    Sponsored Links




  4. #2
    UFS Master Awatar Infinity
     Info : 
    Dołączył
    Nov 2009
    Skąd
    Przemyśl
    Posty
    9,565
     Podziękowania : 
    Podziękował: 1,703
    Doceniono: 139,604 razy w 1,697 postach
     UFS Stats Uploady : 
    Filmy: 724
    Gry: 318
    Programy: 16
    TV's: 548
    Muzyka: 30
    Inne: 37
     UFS Stats Konta : 
    Gmail: 13
    Inne: 707
     Total Upload : 
    P2M UP: 10433.65 GB
     Total CA : 
    Total CA: 30110 AC
    Infinity jest nieaktywny

    Domyślnie

    Ostatnio edytowane przez Infinity ; 23-12-2015 o 08:28
    W razie problemów z moim uploadem proszę o kontakt na PW.




Informacje o wątku

Użytkownicy przeglądający ten wątek

Aktualnie 1 użytkownik(ów) przegląda ten wątek. (0 zarejestrowany(ch) oraz 1 gości)

Podobne wątki

  1. 0.7GB Extraction [2015][HDRip][ENG]
    Przez RAZOM w dziale HQ (High Quality - Wysoka Jakość)
    Odpowiedzi: 1
    Ostatni post / autor: 21-12-2015, 11:19
  2. 1.4GB The Intern [2015][HDRip][AC3][ENG]
    Przez RAZOM w dziale HQ (High Quality - Wysoka Jakość)
    Odpowiedzi: 1
    Ostatni post / autor: 16-12-2015, 11:39
  3. 0.7GB Trainwreck [2015][HDRip][ENG]
    Przez kadeshar w dziale HQ (High Quality - Wysoka Jakość)
    Odpowiedzi: 1
    Ostatni post / autor: 12-08-2015, 19:34
  4. 1.4GB Chappie [2015][HDRip][ENG]
    Przez RAZOM w dziale HQ (High Quality - Wysoka Jakość)
    Odpowiedzi: 3
    Ostatni post / autor: 22-05-2015, 17:21

Uprawnienia umieszczania postów

  • Nie możesz zakładać nowych tematów
  • Nie możesz pisać wiadomości
  • Nie możesz dodawać załączników
  • Nie możesz edytować swoich postów
  •