Aktualizacje seriali
 



Ogłoszenia
UFS - dotacje
Dotacje SMS
Jak korzystać z forumowej szukajki



Pokaż wyniki od 1 do 2 z 2

Wątek: Wspaniałe Stulecie [SEZON1][2011-2014][HDTV][x264][LEK-PL]

  1. #1
    Gdzie są pieniądze za las?! Awatar Stachu
     Info : 
    Dołączył
    Oct 2007
    Skąd
    Köln
    Posty
    9,414
     Podziękowania : 
    Podziękował: 243
    Doceniono: 37,515 razy w 1,148 postach
     UFS Stats Uploady : 
    Filmy: 892
    Gry: 597
    Programy: 14
    TV's: 297
    Muzyka: 87
    Porno: 69
    Inne: 66
    Małe uploady: 12
     UFS Stats Konta : 
    Gmail: 205
    Inne: 648
     Total Upload : 
    P2M UP: 8184.15 GB
     Total CA : 
    Total CA: 14861 AC
     Total HTTP Upload : 
    HTTP UP: 0.7 GB
    Stachu jest nieaktywny

    MD Wspaniałe Stulecie [SEZON1][2011-2014][HDTV][x264][LEK-PL]

    Wspaniałe stulecie

    Muhteşem Yüzyıl




    Produkcja: Turcja
    Data Premiery: 2011-01-05 (świat)
    Czas trwania: odc.: 90 minut
    Gatunek: Biograficzny | Dramat | Historyczny
    Ocena: 8,1 / 10
    Więcej informacji na: fdb.pl



    Imperium Osmańskie, XVI wiek. Historia panowania sułtana Sulejmana Wspaniałego, za którego rządów Turcja osiągnęła szczyt swojej potęgi.



    Sułtan Sulejman - Halit Ergenç
    Ayse Hafsa, Sułtanka matka - Nebahat Çehre
    Ibrahim Pasza - Okan Yalabik
    Sułtanka Mahidevran - Nur Fettahoglu
    Sułtanka Hatice - Selma Ergeç
    Daye Hatun - Sema Keçik
    Nigar Kalfa - Filiz Ahmet
    Sümbül Aga - Selim Bayraktar











    Spoiler: 

    Format : MPEG-4
    Format profile : Base Media
    Codec ID : isom
    File size : 621 MiB
    Duration : 46mn 28s
    Overall bit rate mode : Variable
    Overall bit rate : 1 868 Kbps
    Encoded date : UTC 2014-10-13 15:00:58
    Tagged date : UTC 2014-10-13 15:00:58

    Video
    ID : 2
    Format : AVC
    Format/Info : Advanced Video Codec
    Format profile : High@L3.1
    Format settings, CABAC : Yes
    Format settings, ReFrames : 4 frames
    Codec ID : avc1
    Codec ID/Info : Advanced Video Coding
    Duration : 46mn 28s
    Bit rate : 1 750 Kbps
    Width : 800 pixels
    Height : 450 pixels
    Display aspect ratio : 16:9
    Frame rate mode : Constant
    Frame rate : 50.000 fps
    Color space : YUV
    Chroma subsampling : 4:2:0
    Bit depth : 8 bits
    Scan type : Progressive
    Bits/(Pixel*Frame) : 0.097
    Stream size : 586 MiB (94%)
    Writing library : x264 core 129 r2245 bc13772
    Encoding settings : cabac=1 / ref=3 / deblock=1:0:0 / analyse=0x3:0x113 / me=hex / subme=7 / psy=1 / psy_rd=1.00:0.00 / mixed_ref=1 / me_range=16 / chroma_me=1 / trellis=1 / 8x8dct=1 / cqm=0 / deadzone=21,11 / fast_pskip=1 / chroma_qp_offset=-2 / threads=36 / lookahead_threads=6 / sliced_threads=0 / nr=0 / decimate=1 / interlaced=0 / bluray_compat=0 / constrained_intra=0 / bframes=3 / b_pyramid=2 / b_adapt=1 / b_bias=0 / direct=1 / weightb=1 / open_gop=0 / weightp=2 / keyint=100 / keyint_min=51 / scenecut=0 / intra_refresh=0 / rc_lookahead=40 / rc=abr / mbtree=1 / bitrate=1750 / ratetol=1.0 / qcomp=0.60 / qpmin=0 / qpmax=69 / qpstep=4 / ip_ratio=1.40 / aq=1:1.00
    Encoded date : UTC 2014-10-13 14:51:23
    Tagged date : UTC 2014-10-13 15:00:35
    Color range : Full

    Audio
    ID : 1
    Format : AAC
    Format/Info : Advanced Audio Codec
    Format profile : LC
    Codec ID : 40
    Duration : 46mn 28s
    Bit rate mode : Variable
    Bit rate : 98.3 Kbps
    Channel(s) : 2 channels
    Channel positions : Front: L R
    Sampling rate : 44.1 KHz
    Compression mode : Lossy
    Stream size : 32.7 MiB (5%)
    Tagged date : UTC 2014-10-13 15:00:59







    Nazwa pliku: Wspaniałe Stulecie 001-023
    Wielkość uploadu: 683 MB
    Uploader: Stachu
    Upload dla: www.ufs.pt
    Ilość segmentów: 35
    Ilość kont: 6


    Hasło: www.ufs.pt

    Masz problem z programem MailDownloader? Zajrzyj do działu Poradniki & FAQ tego programu.


    Zawartość Ukryta. Kliknij "PODZIĘKUJ" żeby zobaczyć hashcode. (ikonka browara)

    Upload zawiera 10% danych naprawczych!
    Jak korzystać z danych naprawczych? Tutaj znajdziesz poradnik!
    Upload wykonany w MD 0.40a
    Member -> Full Member -> UFS Trial -> UFS Uploader -> UFS Elite -> Moderator -> UFS Elite -> Super Vip -> Elite Kreator -> Elite Uploader -> Super Vip -> Elite Uploader -> Super Vip
    Intel Core i5 2500 3.3GHz
    SilentiumPC
    Asus H61
    Kingston HyperX 16GB DDR3 1600MHz
    Seagate 500GB
    Toshiba 320GB
    Seagate Desktop HDD 2TB
    GoodRam SSD 120GB
    Gigabyte GeForce 1060 6GB XTreme OC
    Nagrywarka Asus
    Thermaltake Modular SE 530W
    Zalman 3 Plus White



  2. Liczba osób które doceniły autora: 37


  3.    Sponsored Links




  4. #2
    Retired Awatar RAZOM
     Info : 
    Dołączył
    Apr 2014
    Skąd
    Internet
    Posty
    6,439
     Podziękowania : 
    Podziękował: 1,162
    Doceniono: 187,918 razy w 1,931 postach
     UFS Stats Uploady : 
    Filmy: 1175
    Gry: 268
    TV's: 270
    Muzyka: 51
    Porno: 1
    Inne: 6
     UFS Stats Konta : 
    Gmail: 24
    Inne: 296
     Total Upload : 
    P2M UP: 12642.4 GB
     Total CA : 
    Total CA: 6285 AC
    RAZOM jest nieaktywny

    Domyślnie

    niezatwierdzone
    Ostatnio edytowane przez RAZOM ; 28-11-2015 o 20:05
    Jeśli coś nie działa, czegoś potrzebujesz pisz na PW, nie mam czasu żeby sprawdzać wszystkich komentarzy.
    Pakuje uploady WinRar'em 5.1+, używaj do wypakowania takiego lub nowszego.

Informacje o wątku

Użytkownicy przeglądający ten wątek

Aktualnie 1 użytkownik(ów) przegląda ten wątek. (0 zarejestrowany(ch) oraz 1 gości)

Uprawnienia umieszczania postów

  • Nie możesz zakładać nowych tematów
  • Nie możesz pisać wiadomości
  • Nie możesz dodawać załączników
  • Nie możesz edytować swoich postów
  •