Aktualizacje seriali
 



Ogłoszenia
UFS - dotacje
Dotacje SMS
Jak korzystać z forumowej szukajki



Pokaż wyniki od 1 do 2 z 2

Wątek: Book of Life [2014][3D-HSBS][Blu-Ray][1080p][x264][ENG][Animowany]

  1. #1
    Gdzie są pieniądze za las?! Awatar Stachu
     Info : 
    Dołączył
    Oct 2007
    Skąd
    Köln
    Posty
    9,414
     Podziękowania : 
    Podziękował: 243
    Doceniono: 37,492 razy w 1,148 postach
     UFS Stats Uploady : 
    Filmy: 892
    Gry: 597
    Programy: 14
    TV's: 297
    Muzyka: 87
    Porno: 69
    Inne: 66
    Małe uploady: 12
     UFS Stats Konta : 
    Gmail: 205
    Inne: 648
     Total Upload : 
    P2M UP: 8184.15 GB
     Total CA : 
    Total CA: 14861 AC
     Total HTTP Upload : 
    HTTP UP: 0.7 GB
    Stachu jest nieaktywny

    MD Book of Life [2014][3D-HSBS][Blu-Ray][1080p][x264][ENG][Animowany]

    Book of Life

    Księga życia




    Reżyseria: Jorge R. Gutierrez
    Scenariusz: Jorge R. Gutierrez, Douglas Langdale
    Gatunek: Animacja, Fantasy, Przygodowy
    Produkcja: USA
    Premiera: 2 października 2014 (świat)
    Boxoffice: $97 437 106
    Ocena: 7,6 / 10
    Muzyka: Gustavo Santaolalla



    Joaquin i Manolo wyruszają w podróż, dzięki której poznają, kim naprawdę są.

    Dwóch potężnych magów zakłada się o to, czy ludzie są istotami o czystych sercach. Wśród ludzi poddanych próbie są dwaj bohaterowie filmu: Manolo - młody matador, który marzy, by zostać muzykiem i Joaquin - sportowiec i duma rodzinnego miasta. Obaj konkurują o względy Marii - pięknej i niezależnej księżniczki. Los każe im wyruszyć we wspaniałą podróż, w czasie której spotykają barwne postaci i odwiedzają niezwykłe krainy, poznając prawdę o sobie samych.



    Manolo - Diego Luna
    Maria - Zoe Saldana
    Joaquin - Channing Tatum
    Xibalba - Ron Perlman
    Mary Beth - Christina Applegate
    Świeczkarz - Ice Cube
    Śmierć - Kate del Castillo
    Carlos Sanchez - Hector Elizondo









    Format : MPEG-4
    Format profile : Base Media
    Codec ID : isom
    File size : 1.44 GiB
    Duration : 1h 35mn
    Overall bit rate mode : Variable
    Overall bit rate : 2 157 Kbps
    Encoded date : UTC 2015-03-11 04:04:48
    Tagged date : UTC 2015-03-11 04:04:48

    Video
    ID : 1
    Format : AVC
    Format/Info : Advanced Video Codec
    Format profile : High@L4.1
    Format settings, CABAC : Yes
    Format settings, ReFrames : 4 frames
    Codec ID : avc1
    Codec ID/Info : Advanced Video Coding
    Duration : 1h 35mn
    Bit rate : 2 060 Kbps
    Maximum bit rate : 10.9 Mbps
    Width : 1 920 pixels
    Height : 1 080 pixels
    Display aspect ratio : 16:9
    Frame rate mode : Constant
    Frame rate : 23.976 fps
    Color space : YUV
    Chroma subsampling : 4:2:0
    Bit depth : 8 bits
    Scan type : Progressive
    Bits/(Pixel*Frame) : 0.041
    Stream size : 1.37 GiB (95%)
    Writing library : x264 core 123 r2189 35cf912
    Encoding settings : cabac=1 / ref=4 / deblock=1:-1:-1 / analyse=0x3:0x133 / me=umh / subme=9 / psy=1 / psy_rd=1.00:0.15 / mixed_ref=1 / me_range=24 / chroma_me=1 / trellis=2 / 8x8dct=1 / cqm=0 / deadzone=21,11 / fast_pskip=0 / chroma_qp_offset=-3 / threads=48 / sliced_threads=0 / nr=0 / decimate=1 / interlaced=0 / bluray_compat=0 / constrained_intra=0 / bframes=3 / b_pyramid=2 / b_adapt=2 / b_bias=0 / direct=3 / weightb=1 / open_gop=0 / weightp=2 / keyint=250 / keyint_min=23 / scenecut=40 / intra_refresh=0 / rc_lookahead=60 / rc=2pass / mbtree=1 / bitrate=2060 / ratetol=1.0 / qcomp=0.60 / qpmin=0 / qpmax=69 / qpstep=4 / cplxblur=20.0 / qblur=0.5 / vbv_maxrate=31250 / vbv_bufsize=31250 / nal_hrd=none / ip_ratio=1.40 / aq=1:1.00
    Encoded date : UTC 2015-03-11 04:04:48
    Tagged date : UTC 2015-03-11 04:04:57
    Color range : Limited
    Color primaries : BT.709
    Matrix coefficients : BT.709

    Audio
    ID : 2
    Format : AAC
    Format/Info : Advanced Audio Codec
    Format profile : LC
    Codec ID : 40
    Duration : 1h 35mn
    Bit rate mode : Variable
    Bit rate : 93.7 Kbps
    Maximum bit rate : 102 Kbps
    Channel(s) : 2 channels
    Channel positions : Front: L R
    Sampling rate : 48.0 KHz
    Compression mode : Lossy
    Stream size : 63.9 MiB (4%)
    Language : English
    Encoded date : UTC 2015-03-11 04:04:56
    Tagged date : UTC 2015-03-11 04:04:57





    Nazwa pliku: The.Book.of.Life.2014.1080p.3D.HSBS.BluRay.x264.YI FY
    Wielkość uploadu: 1472 MB
    Upload dla: www.ufs.pt
    Ilość segmentów: 74
    Ilość kont: 6

    Hasło: www.ufs.pt

    Masz problem z programem MailDownloader? Zajrzyj do działu Poradniki & FAQ tego programu.


    Zawartość Ukryta. Kliknij "PODZIĘKUJ" żeby zobaczyć hashcode. (ikonka browara)

    Upload zawiera 10% danych naprawczych!
    Jak korzystać z danych naprawczych? Tutaj znajdziesz poradnik!
    Upload wykonany w MD 0.36c
    Member -> Full Member -> UFS Trial -> UFS Uploader -> UFS Elite -> Moderator -> UFS Elite -> Super Vip -> Elite Kreator -> Elite Uploader -> Super Vip -> Elite Uploader -> Super Vip
    Intel Core i5 2500 3.3GHz
    SilentiumPC
    Asus H61
    Kingston HyperX 16GB DDR3 1600MHz
    Seagate 500GB
    Toshiba 320GB
    Seagate Desktop HDD 2TB
    GoodRam SSD 120GB
    Gigabyte GeForce 1060 6GB XTreme OC
    Nagrywarka Asus
    Thermaltake Modular SE 530W
    Zalman 3 Plus White



  2. Liczba osób które doceniły autora: 6


  3.    Sponsored Links




  4. #2
    Awatar JRK
     Info : 
    Dołączył
    Nov 2007
    Posty
    7,425
     Podziękowania : 
    Podziękował: 2,541
    Doceniono: 16,697 razy w 516 postach
     UFS Stats Uploady : 
    Filmy: 438
    Gry: 51
    Programy: 41
    TV's: 6
    Muzyka: 40
    Inne: 15
    Małe uploady: 1
     UFS Stats Konta : 
    Gmail: 79
    Inne: 177
     Total Upload : 
    P2M UP: 2723.7 GB
     Total CA : 
    Total CA: 8275 AC
    JRK jest nieaktywny

    Domyślnie

    niezatwierdzone
    Member > Full Member > User > Power User > Tester > Uploader > Extreme Uploader > Moderator > Moderator >Super Moderator > Master > Administrator




Informacje o wątku

Użytkownicy przeglądający ten wątek

Aktualnie 1 użytkownik(ów) przegląda ten wątek. (0 zarejestrowany(ch) oraz 1 gości)

Podobne wątki

  1. 1.6GB Frozen [2013][3D-HSBS][Blu-Ray][1080p][x264][ENG][Animowany]
    Przez Stachu w dziale Bajki & Filmy Animowane
    Odpowiedzi: 1
    Ostatni post / autor: 07-10-2015, 14:37
  2. 9GB Book of Life [2014][BluRay][1080p][DTS][x264][ENG][Animowany]
    Przez RAZOM w dziale Bajki & Filmy Animowane
    Odpowiedzi: 1
    Ostatni post / autor: 22-01-2015, 14:16
  3. 4.5GB A Bugs Life [1998][Blu-Ray][1080p][x264][DTS][ENG][Animowany]
    Przez Enyg w dziale Bajki & Filmy Animowane
    Odpowiedzi: 1
    Ostatni post / autor: 11-01-2015, 12:17
  4. 0.7GB The Book of Life [2014][WEB-DL][ENG][Napisy PL][Animowany]
    Przez Szatan w dziale Bajki & Filmy Animowane
    Odpowiedzi: 1
    Ostatni post / autor: 28-12-2014, 11:53
  5. Odpowiedzi: 1
    Ostatni post / autor: 29-08-2014, 22:59

Uprawnienia umieszczania postów

  • Nie możesz zakładać nowych tematów
  • Nie możesz pisać wiadomości
  • Nie możesz dodawać załączników
  • Nie możesz edytować swoich postów
  •