Aktualizacje seriali
 



Ogłoszenia
UFS - dotacje
Dotacje SMS
Jak korzystać z forumowej szukajki



Pokaż wyniki od 1 do 2 z 2

Wątek: Frozen [2013][3D-HSBS][Blu-Ray][1080p][x264][ENG][Animowany]

  1. #1
    Gdzie są pieniądze za las?! Awatar Stachu
     Info : 
    Dołączył
    Oct 2007
    Skąd
    Köln
    Posty
    9,414
     Podziękowania : 
    Podziękował: 243
    Doceniono: 37,494 razy w 1,148 postach
     UFS Stats Uploady : 
    Filmy: 892
    Gry: 597
    Programy: 14
    TV's: 297
    Muzyka: 87
    Porno: 69
    Inne: 66
    Małe uploady: 12
     UFS Stats Konta : 
    Gmail: 205
    Inne: 648
     Total Upload : 
    P2M UP: 8184.15 GB
     Total CA : 
    Total CA: 14861 AC
     Total HTTP Upload : 
    HTTP UP: 0.7 GB
    Stachu jest nieaktywny

    MD Frozen [2013][3D-HSBS][Blu-Ray][1080p][x264][ENG][Animowany]

    Frozen

    Kraina lodu




    Reżyseria: Chris Buck, Jennifer Lee
    Scenariusz: Jennifer Lee
    Gatunek: Animacja, Familijny, Musical, Przygodowy
    Produkcja: USA
    Premiera: 29 listopada 2013 (Polska) 17 listopada 2013 (świat)
    Boxoffice: $1 274 219 009 top #8
    Ocena: 7,7 / 10
    Muzyka: Christophe Beck
    Dystrybucja: Disney



    Kiedy posiadająca moc kontroli nad śniegiem i lodem Elsa sprowadza srogą zimę na swoje królestwo, Anna wyrusza w podróż, aby odszukać siostrę oraz zakończyć pogodowe anomalie.

    Anna wyrusza na wielką wyprawę, by odnaleźć swoją siostrę Elsę, której magiczna moc uwięziła królestwo Arendelle w okowach wiecznej zimy. W poszukiwaniach towarzyszy jej Kristoff, przed którym górskie szlaki nie kryją żadnych tajemnic i jego lojalny renifer Sven. Podczas misji ocalenia królestwa przyjaciele zmierzą się z surową pogodą, napotkają niebotyczne góry, tajemnicze trolle i zabawnego bałwana o imieniu Olaf.



    Anna - Kristen Bell
    Elsa - Idina Menzel
    Kristoff - Jonathan Groff
    Olaf - Josh Gad
    Hans - Santino Fontana
    Książę - Alan Tudyk
    Pabbie / Dziadek - Ciarán Hinds
    Oaken - Chris Williams









    Format : MPEG-4
    Format profile : Base Media
    Codec ID : isom
    File size : 1.63 GiB
    Duration : 1h 42mn
    Overall bit rate mode : Variable
    Overall bit rate : 2 290 Kbps
    Encoded date : UTC 2014-03-15 13:18:50
    Tagged date : UTC 2014-03-15 13:18:50

    Video
    ID : 1
    Format : AVC
    Format/Info : Advanced Video Codec
    Format profile : High@L4.1
    Format settings, CABAC : Yes
    Format settings, ReFrames : 4 frames
    Codec ID : avc1
    Codec ID/Info : Advanced Video Coding
    Duration : 1h 42mn
    Bit rate : 2 193 Kbps
    Maximum bit rate : 21.1 Mbps
    Width : 1 920 pixels
    Height : 1 080 pixels
    Display aspect ratio : 16:9
    Frame rate mode : Constant
    Frame rate : 23.976 fps
    Color space : YUV
    Chroma subsampling : 4:2:0
    Bit depth : 8 bits
    Scan type : Progressive
    Bits/(Pixel*Frame) : 0.044
    Stream size : 1.56 GiB (96%)
    Writing library : x264 core 135 r2 f0c1c53
    Encoding settings : cabac=1 / ref=4 / deblock=1:-1:-1 / analyse=0x3:0x133 / me=umh / subme=9 / psy=1 / psy_rd=1.00:0.15 / mixed_ref=1 / me_range=24 / chroma_me=1 / trellis=2 / 8x8dct=1 / cqm=0 / deadzone=21,11 / fast_pskip=0 / chroma_qp_offset=-3 / threads=18 / lookahead_threads=1 / sliced_threads=0 / nr=0 / decimate=1 / interlaced=0 / bluray_compat=0 / constrained_intra=0 / bframes=3 / b_pyramid=2 / b_adapt=2 / b_bias=0 / direct=3 / weightb=1 / open_gop=0 / weightp=2 / keyint=250 / keyint_min=23 / scenecut=40 / intra_refresh=0 / rc_lookahead=60 / rc=2pass / mbtree=1 / bitrate=2193 / ratetol=1.0 / qcomp=0.60 / qpmin=0 / qpmax=69 / qpstep=4 / cplxblur=20.0 / qblur=0.5 / vbv_maxrate=31250 / vbv_bufsize=31250 / nal_hrd=none / ip_ratio=1.40 / aq=1:1.00
    Encoded date : UTC 2014-03-15 13:18:50
    Tagged date : UTC 2014-03-15 13:18:59
    Color range : Limited
    Color primaries : BT.709
    Matrix coefficients : BT.709

    Audio
    ID : 2
    Format : AAC
    Format/Info : Advanced Audio Codec
    Format profile : LC
    Codec ID : 40
    Duration : 1h 42mn
    Bit rate mode : Variable
    Bit rate : 93.7 Kbps
    Maximum bit rate : 103 Kbps
    Channel(s) : 2 channels
    Channel positions : Front: L R
    Sampling rate : 48.0 KHz
    Compression mode : Lossy
    Stream size : 68.5 MiB (4%)
    Language : English
    Encoded date : UTC 2014-03-15 13:18:58
    Tagged date : UTC 2014-03-15 13:18:59




    Nazwa pliku: Frozen.2013.1080p.3D.HSBS.BluRay.x264.YIFY
    Wielkość uploadu: 1674 MB
    Uploader: Stachu
    Upload dla: www.ufs.pt
    Komentarz:
    Ilość segmentów: 84
    Ilość kont: 7

    Hasło: www.ufs.pt

    Masz problem z programem MailDownloader? Zajrzyj do działu Poradniki & FAQ tego programu.


    Zawartość Ukryta. Kliknij "PODZIĘKUJ" żeby zobaczyć hashcode. (ikonka browara)

    Upload zawiera 10% danych naprawczych!
    Jak korzystać z danych naprawczych? Tutaj znajdziesz poradnik!
    Upload wykonany w MD 0.36c
    Member -> Full Member -> UFS Trial -> UFS Uploader -> UFS Elite -> Moderator -> UFS Elite -> Super Vip -> Elite Kreator -> Elite Uploader -> Super Vip -> Elite Uploader -> Super Vip
    Intel Core i5 2500 3.3GHz
    SilentiumPC
    Asus H61
    Kingston HyperX 16GB DDR3 1600MHz
    Seagate 500GB
    Toshiba 320GB
    Seagate Desktop HDD 2TB
    GoodRam SSD 120GB
    Gigabyte GeForce 1060 6GB XTreme OC
    Nagrywarka Asus
    Thermaltake Modular SE 530W
    Zalman 3 Plus White



  2. Liczba osób które doceniły autora: 25


  3.    Sponsored Links




  4. #2
    Retired Awatar ZielonY
     Info : 
    Dołączył
    Dec 2013
    Skąd
    ja to znam?
    Posty
    7,742
     Podziękowania : 
    Podziękował: 3,103
    Doceniono: 13,577 razy w 267 postach
     UFS Stats Uploady : 
    Filmy: 144
    Gry: 9
    Programy: 1
    TV's: 19
    Muzyka: 13
    Porno: 2
    Małe uploady: 1
     UFS Stats Konta : 
    Gmail: 28
    Inne: 167
     Total Upload : 
    P2M UP: 1030.38 GB
     Total CA : 
    Total CA: 6695 AC
    ZielonY jest nieaktywny

    Domyślnie

    Ostatnio edytowane przez ZielonY ; 13-10-2015 o 20:12

    Member > Full Member > UFS Trial > UFS Uploader > Super Uploader > UFS Elite > Super Vip > UFS Elite >Moderator > Super Moderator > Retired

Informacje o wątku

Użytkownicy przeglądający ten wątek

Aktualnie 1 użytkownik(ów) przegląda ten wątek. (0 zarejestrowany(ch) oraz 1 gości)

Podobne wątki

  1. Odpowiedzi: 1
    Ostatni post / autor: 29-08-2014, 22:59
  2. 3GB Frozen [2013][WEB-DL][1080p][x264][AC3][ENG][Animowany]
    Przez Only one w dziale Bajki & Filmy Animowane
    Odpowiedzi: 1
    Ostatni post / autor: 26-02-2014, 15:40

Uprawnienia umieszczania postów

  • Nie możesz zakładać nowych tematów
  • Nie możesz pisać wiadomości
  • Nie możesz dodawać załączników
  • Nie możesz edytować swoich postów
  •