Aktualizacje seriali
 



Ogłoszenia
UFS - dotacje
Dotacje SMS
Jak korzystać z forumowej szukajki



Pokaż wyniki od 1 do 2 z 2

Wątek: Terminator: Genisys [2015][BRRip][ENG]

  1. #1
    Gdzie są pieniądze za las?! Awatar Stachu
     Info : 
    Dołączył
    Oct 2007
    Skąd
    Köln
    Posty
    9,414
     Podziękowania : 
    Podziękował: 243
    Doceniono: 37,503 razy w 1,148 postach
     UFS Stats Uploady : 
    Filmy: 892
    Gry: 597
    Programy: 14
    TV's: 297
    Muzyka: 87
    Porno: 69
    Inne: 66
    Małe uploady: 12
     UFS Stats Konta : 
    Gmail: 205
    Inne: 648
     Total Upload : 
    P2M UP: 8184.15 GB
     Total CA : 
    Total CA: 14861 AC
     Total HTTP Upload : 
    HTTP UP: 0.7 GB
    Stachu jest nieaktywny

    MD Terminator: Genisys [2015][BRRip][ENG]

    Terminator: Genisys



    Reżyseria: Alan Taylor
    Scenariusz: Laeta Kalogridis, Patrick Lussier
    Gatunek: Akcja, Sci-Fi
    Produkcja: USA
    Premiera: 1 lipca 2015 (Polska) 21 czerwca 2015 (świat)
    Boxoffice: $440 160 957 top #185
    Ocena: 6,4 / 10
    Muzyka: Lorne Balfe muzyka
    Zdjęcia: Kramer Morgenthau
    Dystrybucja: United International Pictures Sp z o.o.



    Rok 2029. Walczący z cyborgami John Connor wysyła w przeszłość Kyle'a Reese'a, by uratował jego matkę przed terminatorem.

    Niedaleka przyszłość. W roku 2029 John Connor stoi na czele podziemia, walcząc z zagrażającymi ludzkości cyborgami. W tej nierównej walce musi zmierzyć się z siłami przeszłości i … przyszłości. Aby zapewnić sobie życie, wysyła w przeszłość zaufanego porucznika Kyle'a Reese'a, który musi uratować matkę Connora przed śmiercią. Ale to, czego się dowiaduje, zmienia wszystko. Oprócz Ziemi A i Ziemi B istnieje jeszcze jedno uniwersum – C, które ma stać się miejscem dla ludzkości. Tymczasem SkyNet szykuje się do najpotężniejszej wojny w dziejach. Wojny, której celem jest zgładzenie gatunku ludzkiego.



    Terminator - Arnold Schwarzenegger
    John Connor - Jason Clarke
    Sarah Connor - Emilia Clarke
    Kyle Reese - Jai Courtney
    O'Brien - J.K. Simmons
    Danny Dyson - Dayo Okeniyi
    Alex - Matt Smith
    Miles Dyson - Courtney B. Vance









    Format : AVI
    Format/Info : Audio Video Interleave
    File size : 699 MiB
    Duration : 2h 4mn
    Overall bit rate : 784 Kbps
    Writing application : VirtualDubMod 1.5.10.2 (build 2540/release)
    Writing library : VirtualDubMod build 2540/release

    Video
    ID : 0
    Format : MPEG-4 Visual
    Format profile : Advanced Simple@L5
    Format settings, BVOP : 2
    Format settings, QPel : No
    Format settings, GMC : No warppoints
    Format settings, Matrix : Default (H.263)
    Muxing mode : Packed bitstream
    Codec ID : XVID
    Codec ID/Hint : XviD
    Duration : 2h 4mn
    Bit rate : 679 Kbps
    Width : 640 pixels
    Height : 272 pixels
    Display aspect ratio : 2.35:1
    Frame rate : 23.976 fps
    Color space : YUV
    Chroma subsampling : 4:2:0
    Bit depth : 8 bits
    Scan type : Progressive
    Compression mode : Lossy
    Bits/(Pixel*Frame) : 0.163
    Stream size : 605 MiB (87%)
    Writing library : XviD 66

    Audio
    ID : 1
    Format : MPEG Audio
    Format version : Version 1
    Format profile : Layer 3
    Mode : Joint stereo
    Mode extension : MS Stereo
    Codec ID : 55
    Codec ID/Hint : MP3
    Duration : 2h 4mn
    Bit rate mode : Constant
    Bit rate : 96.0 Kbps
    Channel(s) : 2 channels
    Sampling rate : 48.0 KHz
    Compression mode : Lossy
    Stream size : 85.5 MiB (12%)
    Alignment : Split accross interleaves
    Interleave, duration : 42 ms (1.00 video frame)
    Interleave, preload duration : 500 ms
    Writing library : LAME3.99r
    Encoding settings : -m j -V 4 -q 3 -lowpass 15.1 -b 96





    Nazwa pliku: Terminator.Genisys.2015.BRRip.XViD-ETRG
    Wielkość uploadu: 756 MB
    Uploader: Stachu
    Upload dla: www.ufs.pt
    Ilość segmentów: 38
    Ilość kont: 6

    Hasło: www.ufs.pt

    Masz problem z programem MailDownloader? Zajrzyj do działu Poradniki & FAQ tego programu.


    Zawartość Ukryta. Kliknij "PODZIĘKUJ" żeby zobaczyć hashcode. (ikonka browara)

    Upload zawiera 10% danych naprawczych!
    Jak korzystać z danych naprawczych? Tutaj znajdziesz poradnik!
    Upload wykonany w MD 0.36c
    Ostatnio edytowane przez Stachu ; 01-10-2015 o 18:53
    Member -> Full Member -> UFS Trial -> UFS Uploader -> UFS Elite -> Moderator -> UFS Elite -> Super Vip -> Elite Kreator -> Elite Uploader -> Super Vip -> Elite Uploader -> Super Vip
    Intel Core i5 2500 3.3GHz
    SilentiumPC
    Asus H61
    Kingston HyperX 16GB DDR3 1600MHz
    Seagate 500GB
    Toshiba 320GB
    Seagate Desktop HDD 2TB
    GoodRam SSD 120GB
    Gigabyte GeForce 1060 6GB XTreme OC
    Nagrywarka Asus
    Thermaltake Modular SE 530W
    Zalman 3 Plus White



  2. Liczba osób które doceniły autora: 42


  3.    Sponsored Links




  4. #2
    Retired Awatar ZielonY
     Info : 
    Dołączył
    Dec 2013
    Skąd
    ja to znam?
    Posty
    7,742
     Podziękowania : 
    Podziękował: 3,103
    Doceniono: 13,578 razy w 267 postach
     UFS Stats Uploady : 
    Filmy: 144
    Gry: 9
    Programy: 1
    TV's: 19
    Muzyka: 13
    Porno: 2
    Małe uploady: 1
     UFS Stats Konta : 
    Gmail: 28
    Inne: 167
     Total Upload : 
    P2M UP: 1030.38 GB
     Total CA : 
    Total CA: 6695 AC
    ZielonY jest nieaktywny

    Domyślnie

    niezatwierdzone
    Ostatnio edytowane przez ZielonY ; 01-10-2015 o 21:08

    Member > Full Member > UFS Trial > UFS Uploader > Super Uploader > UFS Elite > Super Vip > UFS Elite >Moderator > Super Moderator > Retired

Informacje o wątku

Użytkownicy przeglądający ten wątek

Aktualnie 1 użytkownik(ów) przegląda ten wątek. (0 zarejestrowany(ch) oraz 1 gości)

Podobne wątki

  1. 0.7GB Terminator: Genisys [2015][HDRip][ENG][SUBBED PL]
    Przez janusz11 w dziale HQ (High Quality - Wysoka Jakość)
    Odpowiedzi: 1
    Ostatni post / autor: 28-09-2015, 13:25
  2. 3GB Terminator: Genisys [2015][HDRip][720p][AC3][ENG][Subbed PL]
    Przez Melman w dziale Filmy High Definition [Dział od rangi Full Member]
    Odpowiedzi: 6
    Ostatni post / autor: 24-08-2015, 12:49
  3. 1.4GB Terminator: Genisys [2015][HDRip][AC3][ENG]
    Przez kadeshar w dziale HQ (High Quality - Wysoka Jakość)
    Odpowiedzi: 2
    Ostatni post / autor: 10-08-2015, 22:32

Uprawnienia umieszczania postów

  • Nie możesz zakładać nowych tematów
  • Nie możesz pisać wiadomości
  • Nie możesz dodawać załączników
  • Nie możesz edytować swoich postów
  •