Aktualizacje seriali
 



Ogłoszenia
UFS - dotacje
Dotacje SMS
Jak korzystać z forumowej szukajki



Pokaż wyniki od 1 do 2 z 2

Wątek: Obcy kontra Predator [2004][Blu-Ray][1080p][x264][DTS/AC3][LEK-PL]

  1. #1
    Retired Awatar RAZOM
     Info : 
    Dołączył
    Apr 2014
    Skąd
    Internet
    Posty
    6,439
     Podziękowania : 
    Podziękował: 1,162
    Doceniono: 187,808 razy w 1,931 postach
     UFS Stats Uploady : 
    Filmy: 1175
    Gry: 268
    TV's: 270
    Muzyka: 51
    Porno: 1
    Inne: 6
     UFS Stats Konta : 
    Gmail: 24
    Inne: 296
     Total Upload : 
    P2M UP: 12642.4 GB
     Total CA : 
    Total CA: 6285 AC
    RAZOM jest nieaktywny

    m4ud Obcy kontra Predator [2004][Blu-Ray][1080p][x264][DTS/AC3][LEK-PL]

    Obcy kontra Predator

    AVP: Alien vs. Predator




    Gatunek: Akcja, Sci-Fi
    Produkcja: Czechy, Kanada, Niemcy, USA, Wielka Brytania
    Premiera: 5 listopada 2004 (Polska) 12 sierpnia 2004 (świat)
    Reżyseria: Paul W.S. Anderson
    Scenariusz: Paul W.S. Anderson, Shane Salerno, Dan O'Bannon
    Ocena: 6,1/10



    Bliżej nieokreślona przyszłość. Jeden z prywatnych satelitów korporacji należącej do  Charlesa Weylanda (Lance Henriksen) odkrywa nieznane źródło ciepła na Antarktydzie. Okazuje się nim być tajemnicza piramida. Właściciel korporacji postanawia zorganizować wyprawę badawczą. Zbiera więc ekipę najlepszych specjalistów i wyrusza w miejsce odkrycia. Na miejscu okazuje się jednak, że nie jest to zwykła ekspedycja, gdyż piramida staje się areną w starciu z dwoma niebezpiecznymi gatunkami...



    Sanaa Lathan - Lex Kline
    Lance Henriksen - Charles Weyland
    Raoul Bova - Sebastian Wells
    Carsten Norgaard - Quinn
    Tommy Flanagan - Verheiden
    Ewen Bremner - Graham Miller
    Colin Salmon - Max Stafford
    Sam Troughton - Thomas







    Spoiler: 

    Format : Matroska
    Format version : Version 2
    File size : 14.9 GiB
    Duration : 1h 48mn
    Overall bit rate : 19.6 Mbps
    Movie name : BurCyg
    Encoded date : UTC 2015-01-27 10:47:42
    Writing application : mkvmerge v5.6.0 ('Kenya Kane') built on May 28 2012 06:47:39
    Writing library : libebml v1.2.2 + libmatroska v1.3.0

    Video
    ID : 1
    Format : AVC
    Format/Info : Advanced Video Codec
    Format profile : High@L4.1
    Format settings, CABAC : Yes
    Format settings, ReFrames : 5 frames
    Muxing mode : Header stripping
    Codec ID : V_MPEG4/ISO/AVC
    Duration : 1h 48mn
    Bit rate : 16.8 Mbps
    Width : 1 920 pixels
    Height : 818 pixels
    Display aspect ratio : 2.35:1
    Frame rate : 23.976 fps
    Color space : YUV
    Chroma subsampling : 4:2:0
    Bit depth : 8 bits
    Scan type : Progressive
    Bits/(Pixel*Frame) : 0.447
    Stream size : 12.8 GiB (86%)
    Writing library : x264 core 128 r2216kMod 198a7ea
    Encoding settings : cabac=1 / ref=5 / deblock=1:-3:-3 / analyse=0x3:0x133 / me=umh / subme=11 / psy=1 / fade_compensate=0.00 / psy_rd=1.20:0.20 / mixed_ref=1 / me_range=64 / chroma_me=1 / trellis=2 / 8x8dct=1 / cqm=0 / deadzone=21,11 / fast_pskip=0 / chroma_qp_offset=-3 / threads=12 / lookahead_threads=2 / sliced_threads=0 / nr=0 / decimate=1 / interlaced=0 / bluray_compat=0 / constrained_intra=0 / bframes=14 / b_pyramid=2 / b_adapt=2 / b_bias=0 / direct=3 / weightb=1 / open_gop=0 / weightp=2 / keyint=240 / keyint_min=23 / scenecut=40 / intra_refresh=0 / rc=crf / mbtree=0 / crf=17.5000 / qcomp=0.70 / qpmin=0 / qpmax=69 / qpstep=4 / ip_ratio=1.30 / pb_ratio=1.20 / aq=3:0.60
    Language : English
    Default : Yes
    Forced : No
    Color primaries : BT.709-5, BT.1361, IEC 61966-2-4, SMPTE RP177
    Transfer characteristics : BT.709-5, BT.1361
    Matrix coefficients : BT.709-5, BT.1361, IEC 61966-2-4 709, SMPTE RP177

    Audio #1
    ID : 2
    Format : DTS
    Format/Info : Digital Theater Systems
    Muxing mode : Header stripping
    Codec ID : A_DTS
    Duration : 1h 48mn
    Bit rate mode : Constant
    Bit rate : 1 510 Kbps
    Channel(s) : 6 channels
    Channel positions : Front: L C R, Side: L R, LFE
    Sampling rate : 48.0 KHz
    Bit depth : 24 bits
    Compression mode : Lossy
    Stream size : 1.15 GiB (8%)
    Title : Original DTS 6ch 1510kbps
    Language : English
    Default : No
    Forced : No

    Audio #2
    ID : 3
    Format : AC-3
    Format/Info : Audio Coding 3
    Mode extension : CM (complete main)
    Format settings, Endianness : Big
    Muxing mode : Header stripping
    Codec ID : A_AC3
    Duration : 1h 48mn
    Bit rate mode : Constant
    Bit rate : 224 Kbps
    Channel(s) : 2 channels
    Channel positions : Front: L R
    Sampling rate : 48.0 KHz
    Bit depth : 16 bits
    Compression mode : Lossy
    Stream size : 174 MiB (1%)
    Title : AC3 2ch 224kbps (Commentary by P.Andreson, L.Henriksen & S.Lathan)
    Language : English
    Default : No
    Forced : No

    Audio #3
    ID : 4
    Format : AC-3
    Format/Info : Audio Coding 3
    Format profile : Dolby Digital
    Mode extension : CM (complete main)
    Format settings, Endianness : Big
    Muxing mode : Header stripping
    Codec ID : A_AC3
    Duration : 1h 48mn
    Bit rate mode : Constant
    Bit rate : 224 Kbps
    Channel(s) : 2 channels
    Channel positions : Front: L R
    Sampling rate : 48.0 KHz
    Bit depth : 16 bits
    Compression mode : Lossy
    Stream size : 174 MiB (1%)
    Title : AC3 2ch 224kbps (Commentary by A.Gillis, T.Woddruff & J.Bruno)
    Language : English
    Default : No
    Forced : No

    Audio #4
    ID : 6
    Format : AC-3
    Format/Info : Audio Coding 3
    Mode extension : CM (complete main)
    Format settings, Endianness : Big
    Muxing mode : Header stripping
    Codec ID : A_AC3
    Duration : 1h 48mn
    Bit rate mode : Constant
    Bit rate : 448 Kbps
    Channel(s) : 6 channels
    Channel positions : Front: L C R, Side: L R, LFE
    Sampling rate : 48.0 KHz
    Bit depth : 16 bits
    Compression mode : Lossy
    Stream size : 348 MiB (2%)
    Language : Polish
    Default : Yes
    Forced : No

    Text
    ID : 5
    Format : UTF-8
    Codec ID : S_TEXT/UTF8
    Codec ID/Info : UTF-8 Plain Text
    Language : Polish
    Default : No
    Forced : No



    Spoiler: 

    Hasło: www.ufs.pt
    Nazwa uploadu: Alien.vs.Predator.2004.MULTi.1080p.BluRay.x264-BurCyg (1)
    Nazwa pliku: Alien.vs.Predator.2004.MULTi.1080p.BluRay.x264-BurCyg.mkv
    Rozmiar uploadu: 3580 MB
    Ilość segmentów: 179
    Rozmiar segmentu: 20 MB
    Liczba mirrorów: 10

    Nazwa uploadu: Alien.vs.Predator.2004.MULTi.1080p.BluRay.x264-BurCyg (2)
    Nazwa pliku: Alien.vs.Predator.2004.MULTi.1080p.BluRay.x264-BurCyg.mkv
    Rozmiar uploadu: 3580 MB
    Ilość segmentów: 179
    Rozmiar segmentu: 20 MB
    Liczba mirrorów: 10

    Nazwa uploadu: Alien.vs.Predator.2004.MULTi.1080p.BluRay.x264-BurCyg (3)
    Nazwa pliku: Alien.vs.Predator.2004.MULTi.1080p.BluRay.x264-BurCyg.mkv
    Rozmiar uploadu: 3580 MB
    Ilość segmentów: 179
    Rozmiar segmentu: 20 MB
    Liczba mirrorów: 10

    Nazwa uploadu: Alien.vs.Predator.2004.MULTi.1080p.BluRay.x264-BurCyg (4)
    Nazwa pliku: Alien.vs.Predator.2004.MULTi.1080p.BluRay.x264-BurCyg.mkv
    Rozmiar uploadu: 3580 MB
    Ilość segmentów: 179
    Rozmiar segmentu: 20 MB
    Liczba mirrorów: 10

    Nazwa uploadu: Alien.vs.Predator.2004.MULTi.1080p.BluRay.x264-BurCyg (5)
    Nazwa pliku: Alien.vs.Predator.2004.MULTi.1080p.BluRay.x264-BurCyg.mkv
    Rozmiar uploadu: 960 MB
    Ilość segmentów: 48
    Rozmiar segmentu: 20 MB
    Liczba mirrorów: 7


    Masz problem z programem M4UDownloader? Zajrzyj do działu Poradniki & FAQ tego programu.

    Zawartość Ukryta. Kliknij "PODZIĘKUJ" żeby zobaczyć hashcode. (ikonka browara)

    Upload wykonany w M4UDownloader 2.1.0
    Release wykonany w McReleaser 2.35

    Użyto opcji Zapostuj
    Ostatnio edytowane przez RAZOM ; 21-06-2015 o 16:08
    Jeśli coś nie działa, czegoś potrzebujesz pisz na PW, nie mam czasu żeby sprawdzać wszystkich komentarzy.
    Pakuje uploady WinRar'em 5.1+, używaj do wypakowania takiego lub nowszego.

  2. Liczba osób które doceniły autora: 33


  3.    Sponsored Links




  4. #2
    Awatar JRK
     Info : 
    Dołączył
    Nov 2007
    Posty
    7,425
     Podziękowania : 
    Podziękował: 2,541
    Doceniono: 16,702 razy w 516 postach
     UFS Stats Uploady : 
    Filmy: 438
    Gry: 51
    Programy: 41
    TV's: 6
    Muzyka: 40
    Inne: 15
    Małe uploady: 1
     UFS Stats Konta : 
    Gmail: 79
    Inne: 177
     Total Upload : 
    P2M UP: 2723.7 GB
     Total CA : 
    Total CA: 8275 AC
    JRK jest nieaktywny

    Domyślnie

    niezatwierdzone
    Member > Full Member > User > Power User > Tester > Uploader > Extreme Uploader > Moderator > Moderator >Super Moderator > Master > Administrator




Informacje o wątku

Użytkownicy przeglądający ten wątek

Aktualnie 1 użytkownik(ów) przegląda ten wątek. (0 zarejestrowany(ch) oraz 1 gości)

Podobne wątki

  1. 12GB Obcy kontra Predator 2 [2007][Blu-Ray][1080p][x264][DTS/AC3][LEK-PL]
    Przez RAZOM w dziale Filmy High Definition [Dział od rangi Full Member]
    Odpowiedzi: 3
    Ostatni post / autor: 08-06-2016, 14:31

Uprawnienia umieszczania postów

  • Nie możesz zakładać nowych tematów
  • Nie możesz pisać wiadomości
  • Nie możesz dodawać załączników
  • Nie możesz edytować swoich postów
  •