Aktualizacje seriali
 



Ogłoszenia
UFS - dotacje
Dotacje SMS
Jak korzystać z forumowej szukajki



Pokaż wyniki od 1 do 7 z 7

Wątek: Avengers: Age of Ultron [2015][TC][720p][x264][AC3][ENG]

  1. #1
    Retired Awatar RAZOM
     Info : 
    Dołączył
    Apr 2014
    Skąd
    Internet
    Posty
    6,439
     Podziękowania : 
    Podziękował: 1,162
    Doceniono: 187,750 razy w 1,931 postach
     UFS Stats Uploady : 
    Filmy: 1175
    Gry: 268
    TV's: 270
    Muzyka: 51
    Porno: 1
    Inne: 6
     UFS Stats Konta : 
    Gmail: 24
    Inne: 296
     Total Upload : 
    P2M UP: 12642.4 GB
     Total CA : 
    Total CA: 6285 AC
    RAZOM jest nieaktywny

    m4ud Avengers: Age of Ultron [2015][TC][720p][x264][AC3][ENG]

    Avengers: Age of Ultron

    Avengers: Czas Ultrona




    Gatunek: Akcja, Sci-Fi
    Produkcja: USA
    Premiera: 7 maja 2015 (Polska) 13 kwietnia 2015 (świat)
    Reżyseria: Joss Whedon
    Scenariusz: Joss Whedon
    Ocena: 7,8/10



    Kiedy Tony Stark próbuje wskrzesić dawno zapomniany program utrzymania światowego pokoju, sytuacja niespodziewanie się komplikuje. Na scenę wkracza mroczny Ultron ze zbrodniczym planem zniszczenia całej planety. Los milionów niewinnych istnień spocznie w rękach najpotężniejszych bohaterów Ziemi z drużyny Mścicieli. Iron Man, Kapitan Ameryka, Thor, Hulk, Czarna Wdowa i Hawkeye zostaną wystawieni na największą próbę pełną niełatwych sojuszy i niespodziewanych zwrotów akcji.



    Robert Downey Jr. - Tony Stark / Iron Man
    Chris Hemsworth - Thor
    Mark Ruffalo - Bruce Banner / Hulk
    Chris Evans - Steve Rogers / Kapitan Ameryka
    Scarlett Johansson - Natasha Romanoff / Czarna Wdowa
    Jeremy Renner - Clint Barton / Sokole Oko
    James Spader - Ultron (głos)
    Samuel L. Jackson - Nick Fury










    Spoiler: 

    General
    Complete name : Avengers.Age.of.Ultron.2015.720p.TC.x264.AC3.HQ.Hi ve-CM8.mkv
    Format : Matroska
    Format version : Version 2
    File size : 3.63 GiB
    Duration : 2h 13mn
    Overall bit rate mode : Variable
    Overall bit rate : 3 905 Kbps
    Encoded date : UTC 2015-05-27 17:17:15
    Writing application : mkvmerge v5.6.0 ('Kenya Kane') built on May 27 2012 16:44:04
    Writing library : libebml v1.2.3 + libmatroska v1.3.0

    Video
    ID : 1
    Format : AVC
    Format/Info : Advanced Video Codec
    Format profile : High@L3.1
    Format settings, CABAC : Yes
    Format settings, ReFrames : 4 frames
    Muxing mode : Header stripping
    Codec ID : V_MPEG4/ISO/AVC
    Duration : 2h 13mn
    Bit rate mode : Variable
    Bit rate : 3 571 Kbps
    Maximum bit rate : 8 000 Kbps
    Width : 1 280 pixels
    Height : 594 pixels
    Display aspect ratio : 2.2:1
    Frame rate : 30.000 fps
    Standard : NTSC
    Color space : YUV
    Chroma subsampling : 4:2:0
    Bit depth : 8 bits
    Scan type : Progressive
    Bits/(Pixel*Frame) : 0.157
    Stream size : 3.32 GiB (91%)
    Language : English
    Default : Yes
    Forced : No
    Color primaries : BT.709-5, BT.1361, IEC 61966-2-4, SMPTE RP177
    Transfer characteristics : BT.709-5, BT.1361
    Matrix coefficients : BT.709-5, BT.1361, IEC 61966-2-4 709, SMPTE RP177

    Audio
    ID : 2
    Format : AC-3
    Format/Info : Audio Coding 3
    Mode extension : CM (complete main)
    Format settings, Endianness : Big
    Muxing mode : Header stripping
    Codec ID : A_AC3
    Duration : 2h 13mn
    Bit rate mode : Constant
    Bit rate : 256 Kbps
    Channel(s) : 2 channels
    Channel positions : Front: L R
    Sampling rate : 48.0 KHz
    Bit depth : 16 bits
    Compression mode : Lossy
    Stream size : 244 MiB (7%)
    Language : English
    Default : Yes
    Forced : Yes



    NAPISY
    http://www30.zippyshare.com/v/bnCwJhr9/file.html
    Od Yogii26

    Spoiler: 

    Hasło: www.ufs.pt
    Nazwa uploadu: Avengers.Age.of.Ultron.2015.720p.TC.x264.AC3.HQ.Hi ve-CM8 (1)
    Nazwa pliku: Avengers.Age.of.Ultron.2015.720p.TC.x264.AC3.HQ.Hi ve-CM8.mkv
    Rozmiar uploadu: 3580 MB
    Ilość segmentów: 179
    Rozmiar segmentu: 20 MB
    Liczba mirrorów: 10

    Nazwa uploadu: Avengers.Age.of.Ultron.2015.720p.TC.x264.AC3.HQ.Hi ve-CM8 (2)
    Nazwa pliku: Avengers.Age.of.Ultron.2015.720p.TC.x264.AC3.HQ.Hi ve-CM8.mkv
    Rozmiar uploadu: 140 MB
    Ilość segmentów: 7
    Rozmiar segmentu: 20 MB
    Liczba mirrorów: 5


    Masz problem z programem M4UDownloader? Zajrzyj do działu Poradniki & FAQ tego programu.

    Zawartość Ukryta. Kliknij "PODZIĘKUJ" żeby zobaczyć hashcode. (ikonka browara)

    Upload wykonany w M4UDownloader 2.1.0
    Release wykonany w McReleaser 2.32

    Użyto opcji Zapostuj
    Jeśli coś nie działa, czegoś potrzebujesz pisz na PW, nie mam czasu żeby sprawdzać wszystkich komentarzy.
    Pakuje uploady WinRar'em 5.1+, używaj do wypakowania takiego lub nowszego.

  2. Liczba osób które doceniły autora: 551


  3.    Sponsored Links




  4. #2
    Legends Awatar kadeshar
     Info : 
    Dołączył
    Sep 2008
    Posty
    6,668
     Podziękowania : 
    Podziękował: 2,001
    Doceniono: 18,211 razy w 624 postach
     UFS Stats Uploady : 
    Filmy: 205
    Gry: 135
    Programy: 3
    TV's: 89
    Inne: 49
    Małe uploady: 3
     UFS Stats Konta : 
    Gmail: 162
    Inne: 216
     Total Upload : 
    P2M UP: 1508.8 GB
     Total CA : 
    Total CA: 8830 AC
    kadeshar jest nieaktywny

    Domyślnie

    niezatwierdzone
    Ostatnio edytowane przez JRK ; 04-06-2015 o 13:06
    W razie problemów z moim uploadem proszę pisać w temacie i dokładnie opisywać problemy (nr błędu, problem z jakimi skrzynkami itd.)

  5. #3
    Full Member
     Info : 
    Dołączył
    Jun 2008
    Posty
    696
     Podziękowania : 
    Podziękował: 687
    Doceniono: 0 razy w 0 postach
    cipek-17 jest nieaktywny

    Domyślnie

    są napisy?


    // Pytania o cracki, seriale bądź napisy -10 pkt - Azuel
    Ostatnio edytowane przez Azuel ; 10-06-2015 o 16:49

  6. #4
    Full Member
     Info : 
    Dołączył
    Aug 2008
    Posty
    597
     Podziękowania : 
    Podziękował: 590
    Doceniono: 0 razy w 0 postach
    jurex3 jest nieaktywny

    Domyślnie

    dodałem na napi

  7. #5
    Full Member
     Info : 
    Dołączył
    Aug 2007
    Posty
    54
     Podziękowania : 
    Podziękował: 51
    Doceniono: 0 razy w 0 postach
    Mlody1990 jest nieaktywny

    Domyślnie

    @jurex3 możesz podać jakiś link do napisów, bo z napi nie pobierze ;/

  8. #6
    Retired Awatar RAZOM
     Info : 
    Dołączył
    Apr 2014
    Skąd
    Internet
    Posty
    6,439
     Podziękowania : 
    Podziękował: 1,162
    Doceniono: 187,750 razy w 1,931 postach
     UFS Stats Uploady : 
    Filmy: 1175
    Gry: 268
    TV's: 270
    Muzyka: 51
    Porno: 1
    Inne: 6
     UFS Stats Konta : 
    Gmail: 24
    Inne: 296
     Total Upload : 
    P2M UP: 12642.4 GB
     Total CA : 
    Total CA: 6285 AC
    RAZOM jest nieaktywny

    Domyślnie

    Cytat Zamieszczone przez jurex3 Zobacz posta
    dodałem na napi
    Jak możesz wyślij napisy mi na PW to dodam do uploadu.
    Jeśli coś nie działa, czegoś potrzebujesz pisz na PW, nie mam czasu żeby sprawdzać wszystkich komentarzy.
    Pakuje uploady WinRar'em 5.1+, używaj do wypakowania takiego lub nowszego.

  9. #7
    Full Member Awatar Yogii26
     Info : 
    Dołączył
    Oct 2008
    Skąd
    Pruszków
    Posty
    296
     Podziękowania : 
    Podziękował: 260
    Doceniono: 0 razy w 0 postach
    Yogii26 jest nieaktywny

    Domyślnie

    Napisy są na NapiProjekt, jednak wersja filmy w pewnym momencie przycina (dokładnie w 01:13:12) i napisy się opóźniają :/ Później powinienem poprawić te napisy, więc jakby co to napiszę do RAZOM' a.
    Ostatnio edytowane przez Yogii26 ; 12-07-2015 o 19:57

Informacje o wątku

Użytkownicy przeglądający ten wątek

Aktualnie 1 użytkownik(ów) przegląda ten wątek. (0 zarejestrowany(ch) oraz 1 gości)

Uprawnienia umieszczania postów

  • Nie możesz zakładać nowych tematów
  • Nie możesz pisać wiadomości
  • Nie możesz dodawać załączników
  • Nie możesz edytować swoich postów
  •