Aktualizacje seriali
 



Ogłoszenia
UFS - dotacje
Dotacje SMS
Jak korzystać z forumowej szukajki



Pokaż wyniki od 1 do 2 z 2

Wątek: Project Almanac [2014][DVDRip][x264][AC3][ENG]

  1. #1
    Retired Awatar Look
     Info : 
    Dołączył
    Jan 2008
    Posty
    4,495
     Podziękowania : 
    Podziękował: 922
    Doceniono: 20,523 razy w 334 postach
     UFS Stats Uploady : 
    Filmy: 595
    Gry: 59
    Programy: 1
    TV's: 72
    Muzyka: 13
    Porno: 1
    Inne: 4
     UFS Stats Konta : 
    Gmail: 172
    Inne: 121
     Total Upload : 
    P2M UP: 2456.2 GB
     Total CA : 
    Total CA: 8670 AC
    Look jest nieaktywny

    m4ud Project Almanac [2014][DVDRip][x264][AC3][ENG]

    Project Almanac



    Gatunek: Thriller, Sci-Fi
    Produkcja: USA
    Data Premiery: 13 listopada 2014 (świat)
    Reżyseria: Dean Israelite
    Scenariusz: Jason Pagan, Andrew Stark
    Zdjęcia: Matthew J. Lloyd
    Dystrybucja: United International Pictures Sp z o.o.


    Nastolatkowie odkrywają maszynę do przemieszczania się w czasie. Rozpoczynają wyprawy w przeszłość aby zmienić niemiłe zdarzenia, które ich spotkały.


    Amy Landecker - Kathy
    Sofia Black-D'Elia -
    Virginia Gardner - Christina
    Jonny Weston - David Raskin
    Patrick Johnson - Todd
    Gary Grubbs - Dr Lu
    Allen Evangelista - Adam
    Gary Weeks - Ben






    Video
    ID : 1
    Format : AVC
    Format/Info : Advanced Video Codec
    Format profile : High@L3.1
    Format settings, CABAC : Yes
    Format settings, ReFrames : 4 frames
    Codec ID : V_MPEG4/ISO/AVC
    Duration : 1h 46mn
    Bit rate : 2 000 Kbps
    Width : 720 pixels
    Height : 304 pixels
    Display aspect ratio : 2.35:1
    Frame rate mode : Constant
    Frame rate : 23.976 fps
    Color space : YUV
    Chroma subsampling : 4:2:0
    Bit depth : 8 bits
    Scan type : Progressive
    Bits/(Pixel*Frame) : 0.381
    Stream size : 1.42 GiB (79%)

    Audio
    ID : 2
    Format : AC-3
    Format/Info : Audio Coding 3
    Mode extension : CM (complete main)
    Format settings, Endianness : Big
    Codec ID : A_AC3
    Duration : 1h 46mn
    Bit rate mode : Constant
    Bit rate : 448 Kbps
    Channel(s) : 6 channels
    Channel positions : Front: L C R, Side: L R, LFE
    Sampling rate : 48.0 KHz
    Bit depth : 16 bits
    Compression mode : Lossy
    Stream size : 340 MiB (19%)
    Title : Project.Almanac.2014.DVDRip.x264.AC3-RARBG
    Language : English
    Default : Yes
    Forced : No



    Nazwa uploadu: Project.Almanac.2014.DVDRip.x264.AC3-RARBG
    Nazwa pliku: Project.Almanac.2014.DVDRip.x264.AC3-RARBG.mkv
    Rozmiar uploadu: 1825 MB
    Rozmiar segmentu: 20 MB
    Ilość segmentów: 92
    Liczba mirrorów: 10

    Uploader: Look
    Upload dla: UFS
    Hasło: www.ufs.pt

    Masz problem z programem M4UDownloader? Zajrzyj do działu Poradniki & FAQ tego programu.


    Zawartość Ukryta. Kliknij "PODZIĘKUJ" żeby zobaczyć hashcode. (ikonka browara)

  2. Liczba osób które doceniły autora: 161


  3.    Sponsored Links




  4. #2
    Awatar JRK
     Info : 
    Dołączył
    Nov 2007
    Posty
    7,425
     Podziękowania : 
    Podziękował: 2,541
    Doceniono: 16,697 razy w 516 postach
     UFS Stats Uploady : 
    Filmy: 438
    Gry: 51
    Programy: 41
    TV's: 6
    Muzyka: 40
    Inne: 15
    Małe uploady: 1
     UFS Stats Konta : 
    Gmail: 79
    Inne: 177
     Total Upload : 
    P2M UP: 2723.7 GB
     Total CA : 
    Total CA: 8275 AC
    JRK jest nieaktywny

    Domyślnie

    niezatwierdzone
    Member > Full Member > User > Power User > Tester > Uploader > Extreme Uploader > Moderator > Moderator >Super Moderator > Master > Administrator




Informacje o wątku

Użytkownicy przeglądający ten wątek

Aktualnie 1 użytkownik(ów) przegląda ten wątek. (0 zarejestrowany(ch) oraz 1 gości)

Uprawnienia umieszczania postów

  • Nie możesz zakładać nowych tematów
  • Nie możesz pisać wiadomości
  • Nie możesz dodawać załączników
  • Nie możesz edytować swoich postów
  •