Aktualizacje seriali
 



Ogłoszenia
UFS - dotacje
Dotacje SMS
Jak korzystać z forumowej szukajki



Pokaż wyniki od 1 do 2 z 2

Wątek: Mad Men [2007][Sezon 1][Blu-Ray][720p][x264][DTS][ENG]

  1. #1
    SuperVIP Awatar yonji
     Info : 
    Dołączył
    Nov 2007
    Skąd
    Szczecin
    Posty
    1,382
     Podziękowania : 
    Podziękował: 726
    Doceniono: 9,808 razy w 107 postach
     UFS Stats Uploady : 
    Filmy: 67
    Gry: 105
    Programy: 4
    TV's: 13
    Muzyka: 7
     UFS Stats Konta : 
    Gmail: 62
    Inne: 58
     Total Upload : 
    P2M UP: 1364.8 GB
     Total CA : 
    Total CA: 6405 AC
    yonji jest nieaktywny

    m4ud Mad Men [2007][Sezon 1][Blu-Ray][720p][x264][DTS][ENG]

    Mad Men



    Produkcja: USA
    Data Premiery: 2008-09-18 (kino), 2007-07-19 (świat)
    Reżyseria: Tim Hunter, Alan Taylor
    Scenariusz: Matthew Weiner (również) (twórca), André Jacquemetton
    Czas trwania: odc.: 45 minut
    Dystrybucja:
    Gatunek: Dramat
    Ocena: 7,4 / 10



    Dramat przedstawiający jedną z najbardziej prestiżowych nowojorskich agencji reklamowych na początku lat 60'. Opowieść skupia się na Donie Draperze (



    Don Draper (29 odcinków, 2007 - 2012) - Jon Hamm
    Peggy Olson (29 odcinków, 2007 - 2012) - Elisabeth Moss
    Ken Cosgrove (29 odcinków, 2007 - 2012) - Aaron Staton
    Harry Crane (29 odcinków, 2007 - 2012) - Rich Sommer
    Pete Campbell (28 odcinków, 2007 - 2012) - Vincent Kartheiser
    Salvatore Romano (28 odcinków, 2007 - 2009) - Bryan Batt
    Betty Draper (26 odcinków, 2007 - 2009) - January Jones
    Joan Holloway (26 odcinków, 2007 - 2008) - Christina Hendricks







    Spoiler: 



    General
    Unique ID : 200088516179417966592442812213378776004 (0x9687A57FF645579FB8B1FD3848A57BC4)
    Complete name : /home2/yonji/rtorrent/download/Mad Men S01-S07 720p BluRay DTS x264-MiXED/Mad.Men.S01.720p.BluRay.DTS.x264-EnTHD/Mad.Men.S01E01.720p.BluRay.DTS.x264-EnTHD.mkv
    Format : Matroska
    Format version : Version 1
    File size : 2.19 GiB
    Duration : 48mn 39s
    Overall bit rate : 6 435 Kbps
    Encoded date : UTC 2008-08-06 16:32:14
    Writing application : mkvmerge v2.1.0 ('Another Place To Fall') built on Aug 19 2007 13:40:07
    Writing library : libebml v0.7.7 + libmatroska v0.8.1

    Video
    ID : 1
    Format : AVC
    Format/Info : Advanced Video Codec
    Format profile : High@L4.1
    Format settings, CABAC : Yes
    Format settings, ReFrames : 9 frames
    Codec ID : V_MPEG4/ISO/AVC
    Duration : 48mn 39s
    Bit rate : 4 921 Kbps
    Width : 1 280 pixels
    Height : 720 pixels
    Display aspect ratio : 16:9
    Frame rate mode : Constant
    Frame rate : 23.976 fps
    Color space : YUV
    Chroma subsampling : 4:2:0
    Bit depth : 8 bits
    Scan type : Progressive
    Bits/(Pixel*Frame) : 0.223
    Stream size : 1.63 GiB (75%)
    Title : Mad Men - S01E01
    Writing library : x264 core 60
    Encoding settings : cabac=1 / ref=9 / deblock=1:-3:-3 / analyse=0x3:0x113 / me=umh / subme=7 / psy_rd=1.000000 / brdo=1 / mixed_ref=1 / me_range=24 / chroma_me=1 / trellis=2 / 8x8dct=1 / cqm=2 / deadzone=6,4 / chroma_qp_offset=0 / threads=6 / nr=0 / decimate=1 / mbaff=0 / bframes=16 / b_pyramid=1 / b_adapt=1 / b_bias=0 / direct=3 / wpredb=1 / bime=1 / keyint=250 / keyint_min=25 / scenecut=40(pre) / rc=2pass / bitrate=4921 / ratetol=1.0 / rceq='blurCplx^(1-qComp)' / qcomp=1.00 / qpmin=10 / qpmax=51 / qpstep=4 / cplxblur=20.0 / qblur=0.5 / ip_ratio=1.40 / pb_ratio=1.30 / aq=2:0.70
    Language : English
    Default : Yes
    Forced : No

    Audio
    ID : 2
    Format : DTS
    Format/Info : Digital Theater Systems
    Mode : 16
    Format settings, Endianness : Big
    Codec ID : A_DTS
    Duration : 48mn 39s
    Bit rate mode : Constant
    Bit rate : 1 509 Kbps
    Channel(s) : 6 channels
    Channel positions : Front: L C R, Side: L R, LFE
    Sampling rate : 48.0 KHz
    Bit depth : 24 bits
    Compression mode : Lossy
    Stream size : 525 MiB (23%)
    Title : English
    Language : English
    Default : Yes
    Forced : No

    Text
    ID : 3
    Format : UTF-8
    Codec ID : S_TEXT/UTF8
    Codec ID/Info : UTF-8 Plain Text
    Title : English
    Language : English
    Default : No
    Forced : No






    Nazwa uploadu: Mad.Men.S01EXX.720p.BluRay.DTS.x264-EnTHD
    Nazwa pliku: Mad.Men.S01EXX.720p.BluRay.DTS.x264-EnTHD.mkv
    Rozmiar uploadu: 2240 MB
    Rozmiar segmentu: 20 MB
    Ilość segmentów: 113
    Liczba mirrorów: 10
    Hasło: www.ufs.pt

    Masz problem z programem M4UDownloader? Zajrzyj do działu Poradniki & FAQ tego programu.


    Zawartość Ukryta. Kliknij "PODZIĘKUJ" żeby zobaczyć hashcode. (ikonka browara)
    Upload wykonany w M4UD 2.1.0

  2. Liczba osób które doceniły autora: 22


  3.    Sponsored Links




  4. #2
    Retired Awatar ZielonY
     Info : 
    Dołączył
    Dec 2013
    Skąd
    ja to znam?
    Posty
    7,742
     Podziękowania : 
    Podziękował: 3,103
    Doceniono: 13,582 razy w 267 postach
     UFS Stats Uploady : 
    Filmy: 144
    Gry: 9
    Programy: 1
    TV's: 19
    Muzyka: 13
    Porno: 2
    Małe uploady: 1
     UFS Stats Konta : 
    Gmail: 28
    Inne: 167
     Total Upload : 
    P2M UP: 1030.38 GB
     Total CA : 
    Total CA: 6695 AC
    ZielonY jest nieaktywny

    Domyślnie

    niezatwierdzone
    Ostatnio edytowane przez ZielonY ; 11-04-2015 o 21:57

    Member > Full Member > UFS Trial > UFS Uploader > Super Uploader > UFS Elite > Super Vip > UFS Elite >Moderator > Super Moderator > Retired

Informacje o wątku

Użytkownicy przeglądający ten wątek

Aktualnie 1 użytkownik(ów) przegląda ten wątek. (0 zarejestrowany(ch) oraz 1 gości)

Podobne wątki

  1. 9GB Notatnik śmierci [2006 - 2007][Sezon-1][HDTV][720p][x264][LEK-PL][Anime]
    Przez BattleMage w dziale Seriale Anime | Animowane & Bajki
    Odpowiedzi: 2
    Ostatni post / autor: 24-11-2014, 12:49
  2. Bionic Woman [SEZON 1][2007][HDTV][x264][ENG]
    Przez Novy w dziale Pełne Sezony [Dział od rangi Full Member]
    Odpowiedzi: 2
    Ostatni post / autor: 28-09-2012, 22:33

Uprawnienia umieszczania postów

  • Nie możesz zakładać nowych tematów
  • Nie możesz pisać wiadomości
  • Nie możesz dodawać załączników
  • Nie możesz edytować swoich postów
  •