Aktualizacje seriali
 



Ogłoszenia
UFS - dotacje
Dotacje SMS
Jak korzystać z forumowej szukajki



Pokaż wyniki od 1 do 2 z 2

Wątek: The Following [2013][Sezon 3][HDTV][720p][x264][AC3][ENG]

  1. #1
    SuperVIP Awatar yonji
     Info : 
    Dołączył
    Nov 2007
    Skąd
    Szczecin
    Posty
    1,382
     Podziękowania : 
    Podziękował: 726
    Doceniono: 9,808 razy w 107 postach
     UFS Stats Uploady : 
    Filmy: 67
    Gry: 105
    Programy: 4
    TV's: 13
    Muzyka: 7
     UFS Stats Konta : 
    Gmail: 62
    Inne: 58
     Total Upload : 
    P2M UP: 1364.8 GB
     Total CA : 
    Total CA: 6405 AC
    yonji jest nieaktywny

    m4ud The Following [2013][Sezon 3][HDTV][720p][x264][AC3][ENG]

    The Following



    Produkcja: USA
    Data Premiery: 2013-01-13 (świat), 2014-06-13 (dvd)
    Reżyseria: Marcos Siega, Joshua Butler
    Scenariusz: Kevin Williamson (również) (twórca), Adam Armus
    Czas trwania: odc.: 44 minut
    Dystrybucja:
    Gatunek: Kryminał | Dramat | Thriller
    Ocena: 6,2 / 10



    Seryjny morderca ucieka z więzienia. FBI zwraca się o pomoc do emerytowanego agenta, który kilka lat wcześniej aresztował zbiega.



    Ryan Hardy (14 odcinków, 2013) - Kevin Bacon
    Emma Hill (14 odcinków, 2013) - Valorie Curry
    Joe Carroll (14 odcinków, 2013) - James Purefoy
    Debra Parker (13 odcinków, 2013) - Annie Parisse
    Claire Matthews (12 odcinków, 2013) - Natalie Zea
    Mike Weston (12 odcinków, 2013) - Shawn Ashmore
    Jacob Wells (11 odcinków, 2013) - Nico Tortorella
    Joey Matthews (11 odcinków, 2013) - Kyle Catlett







    Spoiler: 
    Video
    ID : 1
    Format : AVC
    Format/Info : Advanced Video Codec
    Format profile : High@L4.1
    Format settings, CABAC : Yes
    Format settings, ReFrames : 9 frames
    Codec ID : V_MPEG4/ISO/AVC
    Duration : 44mn 21s
    Bit rate : 3 670 Kbps
    Width : 1 280 pixels
    Height : 720 pixels
    Display aspect ratio : 16:9
    Frame rate mode : Constant
    Frame rate : 23.976 fps
    Color space : YUV
    Chroma subsampling : 4:2:0
    Bit depth : 8 bits
    Scan type : Progressive
    Bits/(Pixel*Frame) : 0.166
    Stream size : 1.14 GiB (87%)
    Writing library : x264 core 144 r2525 40bb568
    Encoding settings : cabac=1 / ref=9 / deblock=1:-2:-2 / analyse=0x3:0x133 / me=umh / subme=10 / psy=1 / psy_rd=1.00:0.00 / mixed_ref=1 / me_range=32 / chroma_me=1 / trellis=2 / 8x8dct=1 / cqm=0 / deadzone=21,11 / fast_pskip=0 / chroma_qp_offset=-2 / threads=20 / lookahead_threads=2 / sliced_threads=0 / nr=0 / decimate=1 / interlaced=0 / bluray_compat=0 / constrained_intra=0 / bframes=5 / b_pyramid=2 / b_adapt=2 / b_bias=0 / direct=3 / weightb=1 / open_gop=0 / weightp=2 / keyint=250 / keyint_min=23 / scenecut=40 / intra_refresh=0 / rc_lookahead=60 / rc=crf / mbtree=1 / crf=18.0 / qcomp=0.60 / qpmin=0 / qpmax=69 / qpstep=4 / ip_ratio=1.40 / aq=1:1.00
    Language : English
    Default : Yes
    Forced : No
    Matrix coefficients : BT.709

    Audio
    ID : 2
    Format : AC-3
    Format/Info : Audio Coding 3
    Mode extension : CM (complete main)
    Format settings, Endianness : Big
    Codec ID : A_AC3
    Duration : 44mn 21s
    Bit rate mode : Constant
    Bit rate : 448 Kbps
    Channel(s) : 6 channels
    Channel positions : Front: L C R, Side: L R, LFE
    Sampling rate : 48.0 KHz
    Bit depth : 16 bits
    Compression mode : Lossy
    Stream size : 142 MiB (11%)
    Default : Yes
    Forced : No




    Nazwa uploadu: The.Following.S03EXX.720p.HDTV.X264-DIMENSION
    Nazwa pliku: The.Following.S03EXX.720p.HDTV.X264-DIMENSION.mkv
    Rozmiar uploadu: ~1,5 GB
    Rozmiar segmentu: 20 MB
    Ilość segmentów: ~75
    Liczba mirrorów: 8
    Hasło: www.ufs.pt

    Masz problem z programem M4UDownloader? Zajrzyj do działu Poradniki & FAQ tego programu.


    Zawartość Ukryta. Kliknij "PODZIĘKUJ" żeby zobaczyć hashcode. (ikonka browara)
    Upload wykonany w M4UD 2.1.0

  2. Liczba osób które doceniły autora: 32


  3.    Sponsored Links




  4. #2
    Do I really look like a guy with a plan? Awatar Enyg
     Info : 
    Dołączył
    Feb 2014
    Skąd
    Cintra
    Posty
    3,340
     Podziękowania : 
    Podziękował: 1,528
    Doceniono: 9,340 razy w 299 postach
     UFS Stats Uploady : 
    Filmy: 46
    Gry: 52
    Programy: 1
    TV's: 31
    Muzyka: 5
    Inne: 23
     UFS Stats Konta : 
    Gmail: 54
    Inne: 214
     Total Upload : 
    P2M UP: 916.79 GB
     Total CA : 
    Total CA: 8195 AC
    Enyg jest nieaktywny

    Domyślnie

    Ostatnio edytowane przez Enyg ; 25-03-2015 o 20:38



Informacje o wątku

Użytkownicy przeglądający ten wątek

Aktualnie 1 użytkownik(ów) przegląda ten wątek. (0 zarejestrowany(ch) oraz 1 gości)

Podobne wątki

  1. 1GB The Following [SEZON 2][2013][HDTV][720p][x264][ENG]
    Przez d3 w dziale Pełne Sezony [Dział od rangi Full Member]
    Odpowiedzi: 1
    Ostatni post / autor: 09-03-2014, 09:41
  2. Vikings [Sezon 1][2013][HDTV][720p][x264][AC3][ENG]
    Przez Ethayer w dziale Pełne Sezony [Dział od rangi Full Member]
    Odpowiedzi: 16
    Ostatni post / autor: 09-05-2013, 11:07

Uprawnienia umieszczania postów

  • Nie możesz zakładać nowych tematów
  • Nie możesz pisać wiadomości
  • Nie możesz dodawać załączników
  • Nie możesz edytować swoich postów
  •