Aktualizacje seriali
 



Ogłoszenia
UFS - dotacje
Dotacje SMS
Jak korzystać z forumowej szukajki



Pokaż wyniki od 1 do 2 z 2

Wątek: Pingwiny z Madagaskaru [2014][3D-HOU][Blu-Ray][1080p][x264][AC3/DTS][DUB-PL/ENG][Napisy PL][Animowany]

  1. #1
    SuperVIP Awatar yonji
     Info : 
    Dołączył
    Nov 2007
    Skąd
    Szczecin
    Posty
    1,379
     Podziękowania : 
    Podziękował: 723
    Doceniono: 9,802 razy w 107 postach
     UFS Stats Uploady : 
    Filmy: 67
    Gry: 105
    Programy: 4
    TV's: 13
    Muzyka: 7
     UFS Stats Konta : 
    Gmail: 62
    Inne: 58
     Total Upload : 
    P2M UP: 1364.8 GB
     Total CA : 
    Total CA: 6405 AC
    yonji jest nieaktywny

    m4ud Pingwiny z Madagaskaru [2014][3D-HOU][Blu-Ray][1080p][x264][AC3/DTS][DUB-PL/ENG][Napisy PL][Animowany]

    Pingwiny z Madagaskaru

    Penguins of Madagascar




    Reżyseria: Simon J. Smith, Eric Darnell
    Scenariusz: John Aboud, Michael Colton, Brandon Sawyer
    Gatunek: Animacja, Familijny, Komedia, Przygodowy
    Produkcja: USA
    Premiera: 30 stycznia 2015 (Polska) 2015-01-30, 8 listopada 2014 (świat) 2014-11-08
    Boxoffice: $365 933 005 top #237
    Ocena: 6,8 / 10
    Muzyka: Lorne Balfe
    Dystrybucja: Imperial - Cinepix



    Pingwiny łączą siły z tajną organizacją Północny Wiatr przeciwko czarnemu charakterowi, który chce zniszczyć świat.

    Antarktyda. Skipper, Kowalski i Rico są pingwinami. Niespodziewanie im oczom ukazuje się jajko, z którego wykluwa się nowy, mały ptak-nielot, Szeregowy. Mija 10 lat, a światu zagraża niejaki dr Oktawiusz Mackiewicz przybierający postać ośmiornicy Dave'a. Nieloty wraz z pomocą zespołu Północny Wiatr łączą siły i postanawiają powstrzymać złowrogiego doktora. Jeśli ich misja się nie powiedzie, świat będzie należał do głowonoga.



    Skipper - Tom McGrath
    Kowalski - Chris Miller
    Szeregowy - Christopher Knights
    Rico - Conrad Vernon
    Dave - John Malkovich
    Utajniony - Benedict Cumberbatch
    Detonator - Ken Jeong
    Eva - Annet Mahendru







    Spoiler: 

    General
    Unique ID : 233975754161397822912778249472785793442 (0xB0061753A3F5AA4CAF626E89EB0841A2)
    Complete name : psig-pom.3d.2014.multi.1080p.hou.br.x264.mkv
    Format : Matroska
    Format version : Version 4 / Version 2
    File size : 10.7 GiB
    Duration : 1h 31mn
    Overall bit rate : 16.7 Mbps
    Encoded date : UTC 2015-03-14 17:41:16
    Writing application : mkvmerge v6.5.0 ('Isn't she lovely') built on Oct 20 2013 12:50:05
    Writing library : libebml v1.3.0 + libmatroska v1.4.1

    Video
    ID : 1
    Format : AVC
    Format/Info : Advanced Video Codec
    Format profile : High@L4.1
    MultiView_Count : 2
    MultiView_Layout : Top-Bottom (left eye first)
    Format settings, CABAC : Yes
    Format settings, ReFrames : 4 frames
    Codec ID : V_MPEG4/ISO/AVC
    Duration : 1h 31mn
    Bit rate : 15.0 Mbps
    Width : 1 920 pixels
    Height : 1 080 pixels
    Display aspect ratio : 16:9
    Frame rate mode : Constant
    Frame rate : 23.976 fps
    Color space : YUV
    Chroma subsampling : 4:2:0
    Bit depth : 8 bits
    Scan type : Progressive
    Bits/(Pixel*Frame) : 0.302
    Stream size : 9.39 GiB (88%)
    Writing library : x264 core 142 r2453 ea0ca51
    Encoding settings : cabac=1 / ref=4 / deblock=1:-1:-1 / analyse=0x3:0x113 / me=umh / subme=9 / psy=1 / psy_rd=0.90:0.00 / mixed_ref=1 / me_range=32 / chroma_me=1 / trellis=2 / 8x8dct=1 / cqm=0 / deadzone=21,11 / fast_pskip=1 / chroma_qp_offset=-2 / threads=6 / lookahead_threads=1 / sliced_threads=0 / nr=0 / decimate=1 / interlaced=0 / bluray_compat=0 / constrained_intra=0 / bframes=7 / b_pyramid=0 / b_adapt=1 / b_bias=0 / direct=1 / weightb=1 / open_gop=0 / weightp=2 / keyint=250 / keyint_min=23 / scenecut=40 / intra_refresh=0 / rc_lookahead=40 / rc=2pass / mbtree=1 / bitrate=15000 / ratetol=1.0 / qcomp=0.60 / qpmin=0 / qpmax=69 / qpstep=4 / cplxblur=20.0 / qblur=0.5 / vbv_maxrate=40000 / vbv_bufsize=30000 / nal_hrd=none / filler=0 / frame-packing=4 / ip_ratio=1.40 / aq=1:1.10
    Language : English
    Default : Yes
    Forced : No

    Audio #1
    ID : 2
    Format : AC-3
    Format/Info : Audio Coding 3
    Mode extension : CM (complete main)
    Format settings, Endianness : Big
    Codec ID : A_AC3
    Duration : 1h 31mn
    Bit rate mode : Constant
    Bit rate : 192 Kbps
    Channel(s) : 2 channels
    Channel positions : Front: L R
    Sampling rate : 48.0 KHz
    Bit depth : 16 bits
    Compression mode : Lossy
    Stream size : 126 MiB (1%)
    Language : Polish
    Default : Yes
    Forced : No

    Audio #2
    ID : 3
    Format : DTS
    Format/Info : Digital Theater Systems
    Format profile : ES
    Mode : 16
    Format settings, Endianness : Big
    Codec ID : A_DTS
    Duration : 1h 31mn
    Bit rate mode : Constant
    Bit rate : 1 509 Kbps
    Channel(s) : 6 channels
    Channel positions : Front: L C R, Side: L R, LFE
    Sampling rate : 48.0 KHz
    Bit depth : 24 bits
    Compression mode : Lossy
    Stream size : 991 MiB (9%)
    Language : English
    Default : No
    Forced : No

    Text #1
    ID : 4
    Format : PGS
    Muxing mode : zlib
    Codec ID : S_HDMV/PGS
    Codec ID/Info : The same subtitle format used on BDs/HD-DVDs
    Title : 3D
    Language : Polish
    Default : No
    Forced : No

    Text #2
    ID : 5
    Format : UTF-8
    Codec ID : S_TEXT/UTF8
    Codec ID/Info : UTF-8 Plain Text
    Title : 2D
    Language : Polish
    Default : No
    Forced : No




    Nazwa uploadu: psig-pom.3d.2014.multi.1080p.hou.br.x264 (1)
    Nazwa pliku: psig-pom.3d.2014.multi.1080p.hou.br.x264.mkv
    Rozmiar uploadu: 3580 MB
    Ilość segmentów: 179
    Rozmiar segmentu: 20 MB
    Liczba mirrorów: 10

    Nazwa uploadu: psig-pom.3d.2014.multi.1080p.hou.br.x264 (2)
    Nazwa pliku: psig-pom.3d.2014.multi.1080p.hou.br.x264.mkv
    Rozmiar uploadu: 3580 MB
    Ilość segmentów: 179
    Rozmiar segmentu: 20 MB
    Liczba mirrorów: 10

    Nazwa uploadu: psig-pom.3d.2014.multi.1080p.hou.br.x264 (3)
    Nazwa pliku: psig-pom.3d.2014.multi.1080p.hou.br.x264.mkv
    Rozmiar uploadu: 3580 MB
    Ilość segmentów: 179
    Rozmiar segmentu: 20 MB
    Liczba mirrorów: 10

    Nazwa uploadu: psig-pom.3d.2014.multi.1080p.hou.br.x264 (4)
    Nazwa pliku: psig-pom.3d.2014.multi.1080p.hou.br.x264.mkv
    Rozmiar uploadu: 220 MB
    Ilość segmentów: 11
    Rozmiar segmentu: 20 MB
    Liczba mirrorów: 5
    Hasło: www.ufs.pt

    Napisy PL: http://przeklej.org/file/ogSrLa/psig...ou.br.x264.srt

    Masz problem z programem M4UDownloader? Zajrzyj do działu Poradniki & FAQ tego programu.


    Zawartość Ukryta. Kliknij "PODZIĘKUJ" żeby zobaczyć hashcode. (ikonka browara)
    Upload wykonany w M4UD 2.1.0

  2. Liczba osób które doceniły autora: 101


  3.    Sponsored Links




  4. #2
    Awatar JRK
     Info : 
    Dołączył
    Nov 2007
    Posty
    7,425
     Podziękowania : 
    Podziękował: 2,541
    Doceniono: 16,706 razy w 517 postach
     UFS Stats Uploady : 
    Filmy: 438
    Gry: 51
    Programy: 41
    TV's: 6
    Muzyka: 40
    Inne: 15
    Małe uploady: 1
     UFS Stats Konta : 
    Gmail: 79
    Inne: 177
     Total Upload : 
    P2M UP: 2723.7 GB
     Total CA : 
    Total CA: 8275 AC
    JRK jest nieaktywny

    Domyślnie

    niezatwierdzone
    Member > Full Member > User > Power User > Tester > Uploader > Extreme Uploader > Moderator > Moderator >Super Moderator > Master > Administrator




Informacje o wątku

Użytkownicy przeglądający ten wątek

Aktualnie 1 użytkownik(ów) przegląda ten wątek. (0 zarejestrowany(ch) oraz 1 gości)

Podobne wątki

  1. 5.5GB Pingwiny z Madagaskaru [2014][Blu-Ray][720p][x264][AC3/DTS][DUB-PL][Animowany]
    Przez Pumbek w dziale Bajki & Filmy Animowane
    Odpowiedzi: 1
    Ostatni post / autor: 22-03-2015, 21:03
  2. 2GB Pingwiny z Madagaskaru [2014][BDRip][720p][x264][AC3][DUB-PL][Animowany]
    Przez yonji w dziale Bajki & Filmy Animowane
    Odpowiedzi: 1
    Ostatni post / autor: 14-03-2015, 18:38
  3. Odpowiedzi: 1
    Ostatni post / autor: 05-03-2015, 16:53

Uprawnienia umieszczania postów

  • Nie możesz zakładać nowych tematów
  • Nie możesz pisać wiadomości
  • Nie możesz dodawać załączników
  • Nie możesz edytować swoich postów
  •