Aktualizacje seriali
 



Ogłoszenia
UFS - dotacje
Dotacje SMS
Jak korzystać z forumowej szukajki



Pokaż wyniki od 1 do 2 z 2

Wątek: Police Academy: Mission to Moscow [1994][Blu-Ray][1080p][x264][DTS][ENG]

  1. #1
    Do I really look like a guy with a plan? Awatar Enyg
     Info : 
    Dołączył
    Feb 2014
    Skąd
    Cintra
    Posty
    3,340
     Podziękowania : 
    Podziękował: 1,528
    Doceniono: 9,338 razy w 299 postach
     UFS Stats Uploady : 
    Filmy: 46
    Gry: 52
    Programy: 1
    TV's: 31
    Muzyka: 5
    Inne: 23
     UFS Stats Konta : 
    Gmail: 54
    Inne: 214
     Total Upload : 
    P2M UP: 916.79 GB
     Total CA : 
    Total CA: 8195 AC
    Enyg jest nieaktywny

    m4ud Police Academy: Mission to Moscow [1994][Blu-Ray][1080p][x264][DTS][ENG]

    Police Academy: Mission to Moscow

    Akademia Policyjna 7: Misja w Moskwie




    Reżyseria: Alan Metter
    Scenariusz: Michele S. Chodos, Randolph Davis
    Gatunek: Komedia kryminalna
    Produkcja: USA
    Premiera: 26 grudnia 1994 (Polska) 1994-12-26, 10 czerwca 1994 (świat) 1994-06-10
    Ocena: 5,9 / 10
    Muzyka: Robert Folk
    Zdjęcia: Ian Jones
    Dystrybucja: Warner Home Video



    Siódma i ostatnia część popularnej serii "Akademia Policyjna" powstała dopiero po pięciu latach, w 1994 roku. Wyreżyserował ją Alan Metter, scenariusz napisali Michele S. Chodos oraz Randolph Davis. Najzabawniejszy oddział policyjny świata tym razem jedzie do Moskwy. Tamtejsi policjanci potrzebują pomocy w walce z rosyjską mafią. Jej przywódca Konstantin Konali chce zawładnąć światem. Próbuje to osiągnąć za pomocą specjalnej gry wideo, dzięki której może wniknąć do wszystkich systemów komputerowych na świecie. Rosjanie zwracają się z prośbą do amerykańskiej Akademii Policyjnej. Ta nie pozostaje obojętna i wysyła swych najlepszych policjantów do walki z bandytami. Policjanci na miejscu czują się niepewnie, gdyż ani nie znają rosyjskiej kultury, ani języka. Prowadzi to do wielu zabawnych sytuacji i akcji policyjnych.



    Komendant Lassard - George Gaynes
    Sierżant Larvell Jones - Michael Winslow
    Sierżant Tackleberry - David Graf
    Kapitan Callahan - Leslie Easterbrook
    Komendant Rakov - Christopher Lee
    Kapitan Harris - G.W. Bailey
    Constantin Konali - Ron Perlman
    Kadet Kyle Connors - Charlie Schlatter






    Spoiler: 

    Police.Academy.7.Mission.to.Moscow.1994.1080p.BluR ay.x264-HD4U.mkv
    Format : Matroska
    Format version : Version 4 / Version 2
    File size : 6.55 GiB
    Duration : 1h 22mn
    Overall bit rate : 11.3 Mbps
    Encoded date : UTC 2013-11-22 11:49:47
    Writing application : mkvmerge v6.2.0 ('Promised Land') built on Apr 28 2013 12:22:01
    Writing library : libebml v1.3.0 + libmatroska v1.4.0

    Video
    ID : 1
    Format : AVC
    Format/Info : Advanced Video Codec
    Format profile : High@L4.1
    Format settings, CABAC : Yes
    Format settings, ReFrames : 4 frames
    Codec ID : V_MPEG4/ISO/AVC
    Duration : 1h 22mn
    Bit rate : 9 840 Kbps
    Width : 1 920 pixels
    Height : 1 080 pixels
    Display aspect ratio : 16:9
    Frame rate mode : Constant
    Frame rate : 23.976 fps
    Color space : YUV
    Chroma subsampling : 4:2:0
    Bit depth : 8 bits
    Scan type : Progressive
    Bits/(Pixel*Frame) : 0.198
    Stream size : 5.55 GiB (85%)
    Title : X264
    Writing library : x264 core

    Language : English
    Default : Yes
    Forced : No

    Audio
    ID : 2
    Format : DTS
    Format/Info : Digital Theater Systems
    Mode : 16
    Format settings, Endianness : Big
    Codec ID : A_DTS
    Duration : 1h 22mn
    Bit rate mode : Constant
    Bit rate : 1 509 Kbps
    Channel(s) : 2 channels
    Channel positions : Front: L R
    Sampling rate : 48.0 KHz
    Bit depth : 24 bits
    Compression mode : Lossy
    Stream size : 893 MiB (13%)
    Title : DTS
    Language : English
    Default : Yes
    Forced : No



    Nazwa uploadu: Police.Academy.7.Mission.to.Moscow.1994.1080p.BluR ay.x264-HD4U (1)
    Nazwa pliku: Police.Academy.7.Mission.to.Moscow.1994.1080p.BluR ay.x264-HD4U.mkv
    Rozmiar uploadu: 3580 MB
    Rozmiar segmentu: 20 MB
    Ilość segmentów: 179
    Liczba mirrorów: 10

    Nazwa uploadu: Police.Academy.7.Mission.to.Moscow.1994.1080p.BluR ay.x264-HD4U (2)
    Nazwa pliku: Police.Academy.7.Mission.to.Moscow.1994.1080p.BluR ay.x264-HD4U.mkv
    Rozmiar uploadu: 3140 MB
    Rozmiar segmentu: 20 MB
    Ilość segmentów: 157
    Liczba mirrorów: 10
    Hasło: www.ufs.pt

    Masz problem z programem M4UDownloader? Zajrzyj do działu Poradniki & FAQ tego programu.


    Zawartość Ukryta. Kliknij "PODZIĘKUJ" żeby zobaczyć hashcode. (ikonka browara)
    Upload wykonany w M4UD 2.1.0



  2. Liczba osób które doceniły autora: 3


  3.    Sponsored Links




  4. #2
    Awatar JRK
     Info : 
    Dołączył
    Nov 2007
    Posty
    7,425
     Podziękowania : 
    Podziękował: 2,541
    Doceniono: 16,701 razy w 516 postach
     UFS Stats Uploady : 
    Filmy: 438
    Gry: 51
    Programy: 41
    TV's: 6
    Muzyka: 40
    Inne: 15
    Małe uploady: 1
     UFS Stats Konta : 
    Gmail: 79
    Inne: 177
     Total Upload : 
    P2M UP: 2723.7 GB
     Total CA : 
    Total CA: 8275 AC
    JRK jest nieaktywny

    Domyślnie

    niezatwierdzone
    Member > Full Member > User > Power User > Tester > Uploader > Extreme Uploader > Moderator > Moderator >Super Moderator > Master > Administrator




Informacje o wątku

Użytkownicy przeglądający ten wątek

Aktualnie 1 użytkownik(ów) przegląda ten wątek. (0 zarejestrowany(ch) oraz 1 gości)

Podobne wątki

  1. 5.5GB Police Academy 6: City Under Siege [1989][Blu-Ray][1080p][x264][DTS][ENG]
    Przez Enyg w dziale Filmy High Definition [Dział od rangi Full Member]
    Odpowiedzi: 1
    Ostatni post / autor: 16-03-2015, 16:06
  2. 5.5GB Police Academy 2: Their First Assignment [1985][Blu-Ray][1080p][x264][DTS][ENG]
    Przez Enyg w dziale Filmy High Definition [Dział od rangi Full Member]
    Odpowiedzi: 1
    Ostatni post / autor: 09-03-2015, 21:27
  3. 6.5GB Police Academy [1984][Blu-Ray][1080p][x264][DTS][ENG]
    Przez Enyg w dziale Filmy High Definition [Dział od rangi Full Member]
    Odpowiedzi: 1
    Ostatni post / autor: 09-03-2015, 16:31
  4. 0.7GB Police Academy 7 Mission to Moscow [1994][DVDRip][ENG]
    Przez terrmos w dziale HQ (High Quality - Wysoka Jakość)
    Odpowiedzi: 1
    Ostatni post / autor: 11-11-2010, 21:40

Uprawnienia umieszczania postów

  • Nie możesz zakładać nowych tematów
  • Nie możesz pisać wiadomości
  • Nie możesz dodawać załączników
  • Nie możesz edytować swoich postów
  •