Aktualizacje seriali
 



Ogłoszenia
UFS - dotacje
Dotacje SMS
Jak korzystać z forumowej szukajki



Pokaż wyniki od 1 do 2 z 2

Wątek: Police Academy 6: City Under Siege [1989][Blu-Ray][1080p][x264][DTS][ENG]

  1. #1
    Do I really look like a guy with a plan? Awatar Enyg
     Info : 
    Dołączył
    Feb 2014
    Skąd
    Cintra
    Posty
    3,337
     Podziękowania : 
    Podziękował: 1,525
    Doceniono: 9,338 razy w 299 postach
     UFS Stats Uploady : 
    Filmy: 46
    Gry: 52
    Programy: 1
    TV's: 31
    Muzyka: 5
    Inne: 23
     UFS Stats Konta : 
    Gmail: 54
    Inne: 214
     Total Upload : 
    P2M UP: 916.79 GB
     Total CA : 
    Total CA: 8195 AC
    Enyg jest nieaktywny

    m4ud Police Academy 6: City Under Siege [1989][Blu-Ray][1080p][x264][DTS][ENG]

    Police Academy 6: City Under Siege

    Akademia Policyjna 6: Operacja Chaos




    Reżyseria: Peter Bonerz
    Scenariusz: Stephen Curwick
    Gatunek: Komedia
    Produkcja: USA
    Premiera: 10 marca 1989 (świat) 1989-03-10
    Ocena: 6,4 / 10
    Muzyka: Robert Folk
    Zdjęcia: Charles Rosher Jr.



    Po sukcesie piątej części "Akademii Policyjnej" niedługo trzeba było czekać na kolejną. Wyreżyserował ją Peter Bonerz rok później, w 1989 roku na podstawie scenariusza Neala Israela. Bonerz jest twórcą także takich seriali jak: "E. R. Ostry Dyżur" (1984), "Przyjaciele" (1994) oraz ostatnio wydanego przez Warner Home Video "Mojego Wielkiego Greckiego Życia" (2003). W mieście znowu pojawia się ogromna fala przestępstw. Policji brak sił i ludzi, by walczyć z coraz większą liczbą kryminalistów. Zrozpaczony i bezsilny burmistrz miasta prosi Akademię Policyjną o wsparcie. Ta wysyła swoich najlepszych adeptów, czyli Hightowera, Jonesa, Tackleberry'ego oraz Hooksa. Mają za zadanie rozpracować gang, który okrada banki i sklepy jubilerskie. Nie wiedzą jednak, że przyjdzie im współpracować z kapitanem Harrisem (G. W. Bailey), który tylko czeka na każdą ich najmniejsza pomyłkę. Bandyci także nie dają za wygraną. Policjantom pomóc może tylko szczęście.



    Sierżant / Porucznik Moses Hightower - Bubba Smith
    Sierżant Eugene Tackleberry - David Graf
    Sierżant Larvell Jones - Michael Winslow
    Kapitan Debbie Callahan - Leslie Easterbrook
    Hooks - Marion Ramsey
    Proctor - Lance Kinsey
    Nick - Matt McCoy
    Fackler - Bruce Mahler







    Spoiler: 

    Police.Academy.6.City.Under.Siege.1989.1080p.BluRa y.x264-HD4U.mkv
    Format : Matroska
    Format version : Version 4 / Version 2
    File size : 5.46 GiB
    Duration : 1h 23mn
    Overall bit rate : 9 309 Kbps
    Encoded date : UTC 2013-11-22 08:32:52
    Writing application : mkvmerge v6.2.0 ('Promised Land') built on Apr 28 2013 12:22:01
    Writing library : libebml v1.3.0 + libmatroska v1.4.0

    Video
    ID : 1
    Format : AVC
    Format/Info : Advanced Video Codec
    Format profile : High@L4.1
    Format settings, CABAC : Yes
    Format settings, ReFrames : 4 frames
    Codec ID : V_MPEG4/ISO/AVC
    Duration : 1h 23mn
    Bit rate : 8 549 Kbps
    Width : 1 920 pixels
    Height : 1 080 pixels
    Display aspect ratio : 16:9
    Frame rate mode : Constant
    Frame rate : 23.976 fps
    Color space : YUV
    Chroma subsampling : 4:2:0
    Bit depth : 8 bits
    Scan type : Progressive
    Bits/(Pixel*Frame) : 0.172
    Stream size : 4.90 GiB (90%)
    Title : X264
    Writing library : x264 core

    Language : English
    Default : Yes
    Forced : No

    Audio
    ID : 2
    Format : DTS
    Format/Info : Digital Theater Systems
    Mode : 16
    Format settings, Endianness : Big
    Codec ID : A_DTS
    Duration : 1h 23mn
    Bit rate mode : Constant
    Bit rate : 768 Kbps
    Channel(s) : 1 channel
    Channel positions : Front: C
    Sampling rate : 48.0 KHz
    Bit depth : 24 bits
    Compression mode : Lossy
    Stream size : 461 MiB (8%)
    Title : DTS
    Language : English
    Default : Yes
    Forced : No




    Nazwa uploadu: Police.Academy.6.City.Under.Siege.1989.1080p.BluRa y.x264-HD4U (1)
    Nazwa pliku: Police.Academy.6.City.Under.Siege.1989.1080p.BluRa y.x264-HD4U.mkv
    Rozmiar uploadu: 3580 MB
    Rozmiar segmentu: 20 MB
    Ilość segmentów: 179
    Liczba mirrorów: 10


    Nazwa uploadu: Police.Academy.6.City.Under.Siege.1989.1080p.BluRa y.x264-HD4U (2)
    Nazwa pliku: Police.Academy.6.City.Under.Siege.1989.1080p.BluRa y.x264-HD4U.mkv
    Rozmiar uploadu: 2020 MB
    Rozmiar segmentu: 20 MB
    Ilość segmentów: 101
    Liczba mirrorów: 8
    Hasło: www.ufs.pt

    Masz problem z programem M4UDownloader? Zajrzyj do działu Poradniki & FAQ tego programu.


    Zawartość Ukryta. Kliknij "PODZIĘKUJ" żeby zobaczyć hashcode. (ikonka browara)
    Upload wykonany w M4UD 2.1.0



  2. Liczba osób które doceniły autora: 6


  3.    Sponsored Links




  4. #2
    Retired Awatar ZielonY
     Info : 
    Dołączył
    Dec 2013
    Skąd
    ja to znam?
    Posty
    7,742
     Podziękowania : 
    Podziękował: 3,103
    Doceniono: 13,577 razy w 267 postach
     UFS Stats Uploady : 
    Filmy: 144
    Gry: 9
    Programy: 1
    TV's: 19
    Muzyka: 13
    Porno: 2
    Małe uploady: 1
     UFS Stats Konta : 
    Gmail: 28
    Inne: 167
     Total Upload : 
    P2M UP: 1030.38 GB
     Total CA : 
    Total CA: 6695 AC
    ZielonY jest nieaktywny

    Domyślnie

    niezatwierdzone
    Ostatnio edytowane przez ZielonY ; 16-03-2015 o 16:12

    Member > Full Member > UFS Trial > UFS Uploader > Super Uploader > UFS Elite > Super Vip > UFS Elite >Moderator > Super Moderator > Retired

Informacje o wątku

Użytkownicy przeglądający ten wątek

Aktualnie 1 użytkownik(ów) przegląda ten wątek. (0 zarejestrowany(ch) oraz 1 gości)

Podobne wątki

  1. 5.5GB Police Academy 4: Citizens on Patrol [1987][Blu-Ray][1080p][x264][DTS][ENG]
    Przez Enyg w dziale Filmy High Definition [Dział od rangi Full Member]
    Odpowiedzi: 1
    Ostatni post / autor: 11-03-2015, 14:50
  2. 5.5GB Police Academy 3: Back in Training [1986][Blu-Ray][1080p][x264][DTS][ENG]
    Przez Enyg w dziale Filmy High Definition [Dział od rangi Full Member]
    Odpowiedzi: 1
    Ostatni post / autor: 10-03-2015, 16:22
  3. 5.5GB Police Academy 2: Their First Assignment [1985][Blu-Ray][1080p][x264][DTS][ENG]
    Przez Enyg w dziale Filmy High Definition [Dział od rangi Full Member]
    Odpowiedzi: 1
    Ostatni post / autor: 09-03-2015, 21:27
  4. 6.5GB Police Academy [1984][Blu-Ray][1080p][x264][DTS][ENG]
    Przez Enyg w dziale Filmy High Definition [Dział od rangi Full Member]
    Odpowiedzi: 1
    Ostatni post / autor: 09-03-2015, 16:31
  5. 0.7GB Police Academy 6 City Under Siege [1989][DVDRip][ENG]
    Przez terrmos w dziale HQ (High Quality - Wysoka Jakość)
    Odpowiedzi: 2
    Ostatni post / autor: 13-11-2010, 16:12

Uprawnienia umieszczania postów

  • Nie możesz zakładać nowych tematów
  • Nie możesz pisać wiadomości
  • Nie możesz dodawać załączników
  • Nie możesz edytować swoich postów
  •