Aktualizacje seriali
 



Ogłoszenia
UFS - dotacje
Dotacje SMS
Jak korzystać z forumowej szukajki



Pokaż wyniki od 1 do 2 z 2

Wątek: Police Academy 5: Assignment: Miami Beach [1988][Blu-Ray][1080p][x264][DTS][ENG]

  1. #1
    Do I really look like a guy with a plan? Awatar Enyg
     Info : 
    Dołączył
    Feb 2014
    Skąd
    Cintra
    Posty
    3,340
     Podziękowania : 
    Podziękował: 1,528
    Doceniono: 9,340 razy w 299 postach
     UFS Stats Uploady : 
    Filmy: 46
    Gry: 52
    Programy: 1
    TV's: 31
    Muzyka: 5
    Inne: 23
     UFS Stats Konta : 
    Gmail: 54
    Inne: 214
     Total Upload : 
    P2M UP: 916.79 GB
     Total CA : 
    Total CA: 8195 AC
    Enyg jest nieaktywny

    m4ud Police Academy 5: Assignment: Miami Beach [1988][Blu-Ray][1080p][x264][DTS][ENG]

    Police Academy 5: Assignment: Miami Beach

    Akademia Policyjna 5: Misja w Miami Beach




    Reżyseria: Alan Myerson
    Scenariusz: Stephen Curwick
    Gatunek: Komedia kryminalna
    Produkcja: USA
    Premiera: 18 marca 1988 (świat) 1988-03-18
    Ocena: 6,4 / 10
    Muzyka: Robert Folk, Richard Wagner
    Zdjęcia: James Pergola



    Komendant Lassard dostaje prestiżową nagrodę "policjanta dziesięciolecia", którą ma odebrać na dorocznym Narodowym Zjeździe Szefów Policji w Miami Beach. Lassard i jego uczniowie bardzo się z tego cieszą, ale jest też zła wiadomość: porucznik Harris i jego asystent Proctor zawiązali przeciwko niemu spisek. Pod jego nieobecność przeszukali biuro i z dokumentów dowiedzieli się, że Lassard osiągnął już wiek emerytalny. Harris nie może pozostawić takiej wiadomości niewykorzystanej, jest to bowiem dla niego szansa awansu.



    Sierżant Moses Hightower - Bubba Smith
    Sierżant Eugene Tackleberry - David Graf
    Sierżant Larvell Jones - Michael Winslow
    Porucznik Debbie Callahan - Leslie Easterbrook
    Hooks - Marion Ramsey
    Kate - Janet Jones
    Komendant Eric Lassard - George Gaynes
    Nick - Matt McCoy







    Spoiler: 

    Police.Academy.5.Assignment.Miami.Beach.1988.1080p .BluRay.x264-HD4U.mkv
    Format : Matroska
    Format version : Version 4 / Version 2
    File size : 6.55 GiB
    Duration : 1h 29mn
    Overall bit rate : 10.4 Mbps
    Encoded date : UTC 2013-11-22 05:23:16
    Writing application : mkvmerge v6.2.0 ('Promised Land') built on Apr 28 2013 12:22:01
    Writing library : libebml v1.3.0 + libmatroska v1.4.0

    Video
    ID : 1
    Format : AVC
    Format/Info : Advanced Video Codec
    Format profile : High@L4.1
    Format settings, CABAC : Yes
    Format settings, ReFrames : 4 frames
    Codec ID : V_MPEG4/ISO/AVC
    Duration : 1h 29mn
    Bit rate : 9 677 Kbps
    Width : 1 920 pixels
    Height : 1 080 pixels
    Display aspect ratio : 16:9
    Frame rate mode : Constant
    Frame rate : 23.976 fps
    Color space : YUV
    Chroma subsampling : 4:2:0
    Bit depth : 8 bits
    Scan type : Progressive
    Bits/(Pixel*Frame) : 0.195
    Stream size : 5.94 GiB (91%)
    Title : X264
    Writing library : x264 core

    Language : English
    Default : Yes
    Forced : No

    Audio
    ID : 2
    Format : DTS
    Format/Info : Digital Theater Systems
    Mode : 16
    Format settings, Endianness : Big
    Codec ID : A_DTS
    Duration : 1h 29mn
    Bit rate mode : Constant
    Bit rate : 768 Kbps
    Channel(s) : 1 channel
    Channel positions : Front: C
    Sampling rate : 48.0 KHz
    Bit depth : 24 bits
    Compression mode : Lossy
    Stream size : 494 MiB (7%)
    Title : DTS
    Language : English
    Default : Yes
    Forced : No




    Nazwa uploadu: Police.Academy.5.Assignment.Miami.Beach.1988.1080p .BluRay.x264-HD4U (1)
    Nazwa pliku: Police.Academy.5.Assignment.Miami.Beach.1988.1080p .BluRay.x264-HD4U.mkv
    Rozmiar uploadu: 3580 MB
    Rozmiar segmentu: 20 MB
    Ilość segmentów: 179
    Liczba mirrorów: 10

    Nazwa uploadu: Police.Academy.5.Assignment.Miami.Beach.1988.1080p .BluRay.x264-HD4U (2)
    Nazwa pliku: Police.Academy.5.Assignment.Miami.Beach.1988.1080p .BluRay.x264-HD4U.mkv
    Rozmiar uploadu: 3140 MB
    Rozmiar segmentu: 20 MB
    Ilość segmentów: 157
    Liczba mirrorów: 10
    Hasło: www.ufs.pt

    Masz problem z programem M4UDownloader? Zajrzyj do działu Poradniki & FAQ tego programu.


    Zawartość Ukryta. Kliknij "PODZIĘKUJ" żeby zobaczyć hashcode. (ikonka browara)
    Upload wykonany w M4UD 2.1.0



  2. Liczba osób które doceniły autora: 9


  3.    Sponsored Links




  4. #2
    Retired Awatar ZielonY
     Info : 
    Dołączył
    Dec 2013
    Skąd
    ja to znam?
    Posty
    7,742
     Podziękowania : 
    Podziękował: 3,103
    Doceniono: 13,580 razy w 267 postach
     UFS Stats Uploady : 
    Filmy: 144
    Gry: 9
    Programy: 1
    TV's: 19
    Muzyka: 13
    Porno: 2
    Małe uploady: 1
     UFS Stats Konta : 
    Gmail: 28
    Inne: 167
     Total Upload : 
    P2M UP: 1030.38 GB
     Total CA : 
    Total CA: 6695 AC
    ZielonY jest nieaktywny

    Domyślnie

    niezatwierdzone
    Ostatnio edytowane przez ZielonY ; 11-03-2015 o 18:31

    Member > Full Member > UFS Trial > UFS Uploader > Super Uploader > UFS Elite > Super Vip > UFS Elite >Moderator > Super Moderator > Retired

Informacje o wątku

Użytkownicy przeglądający ten wątek

Aktualnie 1 użytkownik(ów) przegląda ten wątek. (0 zarejestrowany(ch) oraz 1 gości)

Podobne wątki

  1. 5.5GB Police Academy 2: Their First Assignment [1985][Blu-Ray][1080p][x264][DTS][ENG]
    Przez Enyg w dziale Filmy High Definition [Dział od rangi Full Member]
    Odpowiedzi: 1
    Ostatni post / autor: 09-03-2015, 21:27
  2. 1.6GB Police Academy 2: Their First Assignment [1985][BDRip][720p][AC3][ENG][Napisy PL]
    Przez FredPL w dziale Filmy High Definition [Dział od rangi Full Member]
    Odpowiedzi: 1
    Ostatni post / autor: 18-04-2013, 16:49
  3. 0.7GB Police Academy 2 Their First Assignment [1985][DVDRip][ENG]
    Przez terrmos w dziale HQ (High Quality - Wysoka Jakość)
    Odpowiedzi: 2
    Ostatni post / autor: 13-11-2010, 16:14
  4. 0.7GB Police Academy 5 Assignment Miami Beach [1988][DVDRip][ENG]
    Przez terrmos w dziale HQ (High Quality - Wysoka Jakość)
    Odpowiedzi: 1
    Ostatni post / autor: 11-11-2010, 19:55

Uprawnienia umieszczania postów

  • Nie możesz zakładać nowych tematów
  • Nie możesz pisać wiadomości
  • Nie możesz dodawać załączników
  • Nie możesz edytować swoich postów
  •