Aktualizacje seriali
 



Ogłoszenia
UFS - dotacje
Dotacje SMS
Jak korzystać z forumowej szukajki



Pokaż wyniki od 1 do 2 z 2

Wątek: Police Academy 4: Citizens on Patrol [1987][Blu-Ray][1080p][x264][DTS][ENG]

  1. #1
    Do I really look like a guy with a plan? Awatar Enyg
     Info : 
    Dołączył
    Feb 2014
    Skąd
    Cintra
    Posty
    3,340
     Podziękowania : 
    Podziękował: 1,528
    Doceniono: 9,340 razy w 299 postach
     UFS Stats Uploady : 
    Filmy: 46
    Gry: 52
    Programy: 1
    TV's: 31
    Muzyka: 5
    Inne: 23
     UFS Stats Konta : 
    Gmail: 54
    Inne: 214
     Total Upload : 
    P2M UP: 916.79 GB
     Total CA : 
    Total CA: 8195 AC
    Enyg jest nieaktywny

    m4ud Police Academy 4: Citizens on Patrol [1987][Blu-Ray][1080p][x264][DTS][ENG]

    Police Academy 4: Citizens on Patrol

    Akademia Policyjna 4: Patrol obywatelski




    Reżyseria: Jim Drake
    Scenariusz: Gene Quintano
    Gatunek: Komedia kryminalna
    Produkcja: USA
    Premiera: 3 kwietnia 1987 (świat) 1987-04-03
    Ocena: 6,5 / 10
    Muzyka: Robert Folk
    Zdjęcia: Robert Saad



    Komendant Lassard wpada na genialny pomysł - patrol obywatelski, który odciąży pracę policji i pozwoli jej łapać prawdziwych kryminalistów. W tym celu mają zostać przeszkoleni specjalnie cywile, którzy pomogą policji patrolować miasto. Przekonany o tym, że plan się nie powiedzie, kapitan Harris zaczyna się już przymierzać, aby zająć miejsce Lassarda w Akademii Policyjnej. Jednakże decyduje się sam dopomóc szczęściu ...



    Sierżant Carey Mahoney - Steve Guttenberg
    Sierżant Moses Hightower - Bubba Smith
    Sierżant Larvell Jones - Michael Winslow
    Tackleberry - David Graf
    Sweetchuck - Tim Kazurinsky
    Porucznik Debbie Callahan - Leslie Easterbrook
    Hooks - Marion Ramsey
    Proktor - Lance Kinsey







    Spoiler: 

    Police.Academy.4.Citizens.on.Patrol.1987.1080p.Blu Ray.x264-HD4U.mkv
    Format : Matroska
    Format version : Version 4 / Version 2
    File size : 5.46 GiB
    Duration : 1h 27mn
    Overall bit rate : 8 958 Kbps
    Encoded date : UTC 2013-11-22 01:42:51
    Writing application : mkvmerge v6.2.0 ('Promised Land') built on Apr 28 2013 12:22:01
    Writing library : libebml v1.3.0 + libmatroska v1.4.0

    Video
    ID : 1
    Format : AVC
    Format/Info : Advanced Video Codec
    Format profile : High@L4.1
    Format settings, CABAC : Yes
    Format settings, ReFrames : 4 frames
    Codec ID : V_MPEG4/ISO/AVC
    Duration : 1h 27mn
    Bit rate : 8 190 Kbps
    Width : 1 920 pixels
    Height : 1 080 pixels
    Display aspect ratio : 16:9
    Frame rate mode : Constant
    Frame rate : 23.976 fps
    Color space : YUV
    Chroma subsampling : 4:2:0
    Bit depth : 8 bits
    Scan type : Progressive
    Bits/(Pixel*Frame) : 0.165
    Stream size : 4.89 GiB (89%)
    Title : X264
    Writing library : x264 core
    Language : English
    Default : Yes
    Forced : No

    Audio
    ID : 2
    Format : DTS
    Format/Info : Digital Theater Systems
    Mode : 16
    Format settings, Endianness : Big
    Codec ID : A_DTS
    Duration : 1h 27mn
    Bit rate mode : Constant
    Bit rate : 768 Kbps
    Channel(s) : 1 channel
    Channel positions : Front: C
    Sampling rate : 48.0 KHz
    Bit depth : 24 bits
    Compression mode : Lossy
    Stream size : 480 MiB (9%)
    Title : DTS
    Language : English
    Default : Yes
    Forced : No




    Nazwa uploadu: Police.Academy.4.Citizens.on.Patrol.1987.1080p.Blu Ray.x264-HD4U (1)
    Nazwa pliku: Police.Academy.4.Citizens.on.Patrol.1987.1080p.Blu Ray.x264-HD4U.mkv
    Rozmiar uploadu: 3580 MB
    Rozmiar segmentu: 20 MB
    Ilość segmentów: 179
    Liczba mirrorów: 10

    Nazwa uploadu: Police.Academy.4.Citizens.on.Patrol.1987.1080p.Blu Ray.x264-HD4U (2)
    Nazwa pliku: Police.Academy.4.Citizens.on.Patrol.1987.1080p.Blu Ray.x264-HD4U.mkv
    Rozmiar uploadu: 2020 MB
    Rozmiar segmentu: 20 MB
    Ilość segmentów: 101
    Liczba mirrorów: 8
    Hasło: www.ufs.pt

    Masz problem z programem M4UDownloader? Zajrzyj do działu Poradniki & FAQ tego programu.


    Zawartość Ukryta. Kliknij "PODZIĘKUJ" żeby zobaczyć hashcode. (ikonka browara)
    Upload wykonany w M4UD 2.1.0



  2. Liczba osób które doceniły autora: 7


  3.    Sponsored Links




  4. #2
    Awatar JRK
     Info : 
    Dołączył
    Nov 2007
    Posty
    7,425
     Podziękowania : 
    Podziękował: 2,541
    Doceniono: 16,710 razy w 517 postach
     UFS Stats Uploady : 
    Filmy: 438
    Gry: 51
    Programy: 41
    TV's: 6
    Muzyka: 40
    Inne: 15
    Małe uploady: 1
     UFS Stats Konta : 
    Gmail: 79
    Inne: 177
     Total Upload : 
    P2M UP: 2723.7 GB
     Total CA : 
    Total CA: 8275 AC
    JRK jest nieaktywny

    Domyślnie

    niezatwierdzone
    Member > Full Member > User > Power User > Tester > Uploader > Extreme Uploader > Moderator > Moderator >Super Moderator > Master > Administrator




Informacje o wątku

Użytkownicy przeglądający ten wątek

Aktualnie 1 użytkownik(ów) przegląda ten wątek. (0 zarejestrowany(ch) oraz 1 gości)

Podobne wątki

  1. 5.5GB Police Academy 3: Back in Training [1986][Blu-Ray][1080p][x264][DTS][ENG]
    Przez Enyg w dziale Filmy High Definition [Dział od rangi Full Member]
    Odpowiedzi: 1
    Ostatni post / autor: 10-03-2015, 16:22
  2. 5.5GB Police Academy 2: Their First Assignment [1985][Blu-Ray][1080p][x264][DTS][ENG]
    Przez Enyg w dziale Filmy High Definition [Dział od rangi Full Member]
    Odpowiedzi: 1
    Ostatni post / autor: 09-03-2015, 21:27
  3. 6.5GB Police Academy [1984][Blu-Ray][1080p][x264][DTS][ENG]
    Przez Enyg w dziale Filmy High Definition [Dział od rangi Full Member]
    Odpowiedzi: 1
    Ostatni post / autor: 09-03-2015, 16:31
  4. 0.7GB Police Academy 4 Citizens on Patrol [1987][DVDRip][ENG]
    Przez terrmos w dziale HQ (High Quality - Wysoka Jakość)
    Odpowiedzi: 1
    Ostatni post / autor: 11-11-2010, 19:55

Uprawnienia umieszczania postów

  • Nie możesz zakładać nowych tematów
  • Nie możesz pisać wiadomości
  • Nie możesz dodawać załączników
  • Nie możesz edytować swoich postów
  •