Aktualizacje seriali
 



Ogłoszenia
UFS - dotacje
Dotacje SMS
Jak korzystać z forumowej szukajki



Pokaż wyniki od 1 do 5 z 5

Wątek: Ostatni samuraj [2003][Blu-Ray][1080p][x264][AC3/DTS][LEK-PL]

  1. #1
    CHELSEA LONDYN & BROOKLYN NETS <3 Awatar Pumbek
     Info : 
    Dołączył
    Jan 2007
    Skąd
    ZCH
    Posty
    4,344
     Podziękowania : 
    Podziękował: 794
    Doceniono: 24,658 razy w 540 postach
     UFS Stats Uploady : 
    Filmy: 568
    Gry: 201
    Programy: 17
    TV's: 167
    Muzyka: 70
    Porno: 15
    Inne: 7
    Małe uploady: 7
     UFS Stats Konta : 
    Gmail: 107
    Inne: 124
     Total Upload : 
    P2M UP: 4800.15 GB
     Total CA : 
    Total CA: 15070 AC
    Pumbek jest nieaktywny

    m4ud Ostatni samuraj [2003][Blu-Ray][1080p][x264][AC3/DTS][LEK-PL]

    The Last Samurai

    Ostatni samuraj




    Reżyseria: Edward Zwick
    Scenariusz: Edward Zwick, John Logan, Marshall Herskovitz
    Gatunek: Dramat historyczny
    Produkcja: USA
    Premiera: 30 stycznia 2004 (Polska) 2004-01-30, 22 listopada 2003 (świat) 2003-11-22
    Boxoffice: $456 758 981
    Ocena: 7,6 / 10
    Muzyka: Hans Zimmer
    Zdjęcia: John Toll
    Dystrybucja: Warner Bros.



    Weteran wojny secesyjnej przypływa do Japonii pod koniec 1870 roku, aby szkolić żołnierzy cesarza Mutsuhito.

    Film opowiada o tym, jak żołnierz-weteran Wojny Secesyjnej, Nathan Algren (Tom Cruise), pod koniec 1876 roku przypływa do Japonii, aby szkolić żołnierzy imperatora Meiji. Ma to być przełamanie wiekowej tradycji, w której ochroną terytoriów zajmowali się wynajęci do tego wojownicy - samurajowie. Wojsko ma być narzędziem do uzyskania przewagi cesarza nad władcami lokalnych prowincji, którzy są niechętni wszelkim zmianom, a zwłaszcza idei zjednoczenia kraju. Zupełnie nieoczekiwanie dla samego siebie, Algren wplątuje się w konflikt zbrojny owych przywódców z cesarzem. W trakcie jednej z potyczek Amerykanin zostaje ranny i pojmany przez wojowników. Podczas tego uwięzienia poznaje odwieczny kodeks honorowy samurajów i ich lidera imieniem Katsumoto (Ken Watanabe). To wydarzenie zmienia jego poglądy i sprawia, że od tej pory wie on już po czyjej stronie konfliktu ma stanąć.



    Kapitan Nathan Algren - Tom Cruise
    Katsumoto - Ken Watanabe
    Simon Graham, tłumacz Algrena - Timothy Spall
    Zebulon Gant - Billy Connolly
    Pułkownik Benjamin Bagley - Tony Goldwyn
    Ujio - Hiroyuki Sanada
    Omura - Masato Harada
    Taka - Koyuki








    Format : Matroska
    Format version : Version 2
    File size : 14.3 GiB
    Duration : 2h 34mn
    Overall bit rate mode : Variable
    Overall bit rate : 13.3 Mbps
    Encoded date : UTC 2014-03-16 16:04:43
    Writing application : mkvmerge v5.7.0 ('The Whirlwind') built on Jul 8 2012 20:08:51
    Writing library : libebml v1.2.3 + libmatroska v1.3.0

    Video
    ID : 1
    Format : AVC
    Format/Info : Advanced Video Codec
    Format profile : High@L4.1
    Format settings, CABAC : Yes
    Format settings, ReFrames : 2 frames
    Codec ID : V_MPEG4/ISO/AVC
    Duration : 1h 30mn
    Bit rate : 10.5 Mbps
    Width : 1 920 pixels
    Height : 1 080 pixels
    Display aspect ratio : 16:9 (2.39:1)
    Frame rate mode : Constant
    Frame rate : 23.976 fps
    Color space : YUV
    Chroma subsampling : 4:2:0
    Bit depth : 8 bits
    Scan type : Progressive
    Bits/(Pixel*Frame) : 0.218
    Stream size : 6.87 GiB (98%)
    Title : Rip by Leon 345
    Writing library : x264 core
    Default : Yes
    Forced : No
    Color primaries : BT.709
    Transfer characteristics : BT.709
    Matrix coefficients : BT.709

    Audio #1
    ID : 2
    Format : AC-3
    Format/Info : Audio Coding 3
    Mode extension : CM (complete main)
    Format settings, Endianness : Big
    Codec ID : A_AC3
    Duration : 2h 34mn
    Bit rate mode : Constant
    Bit rate : 640 Kbps
    Channel(s) : 6 channels
    Channel positions : Front: L C R, Side: L R, LFE
    Sampling rate : 48.0 KHz
    Bit depth : 16 bits
    Compression mode : Lossy
    Stream size : 706 MiB (5%)
    Title : AC3 5.1 Orginal
    Language : Polish
    Default : Yes
    Forced : Yes

    Audio #2
    ID : 3
    Format : AC-3
    Format/Info : Audio Coding 3
    Mode extension : CM (complete main)
    Format settings, Endianness : Big
    Codec ID : A_AC3
    Duration : 2h 34mn
    Bit rate mode : Constant
    Bit rate : 640 Kbps
    Channel(s) : 6 channels
    Channel positions : Front: L C R, Side: L R, LFE
    Sampling rate : 48.0 KHz
    Bit depth : 16 bits
    Compression mode : Lossy
    Stream size : 706 MiB (5%)
    Title : AC3 5.1
    Language : English
    Default : No
    Forced : No

    Audio #3
    ID : 4
    Format : TrueHD
    Codec ID : A_TRUEHD
    Duration : 2h 34mn
    Bit rate mode : Variable
    Bit rate : 1367 kbps
    Maximum bit rate : 3 168 Kbps
    Channel(s) : 6 channels
    Channel positions : Front: L C R, Side: L R, LFE
    Sampling rate : 48.0 KHz
    Compression mode : Lossless
    Title : Dolby True HD 5.1 Orginal
    Language : English
    Default : No
    Forced : No

    Text #1
    ID : 5
    Format : PGS
    Muxing mode : zlib
    Codec ID : S_HDMV/PGS
    Codec ID/Info : The same subtitle format used on BDs/HD-DVDs
    Language : Polish
    Default : No
    Forced : No

    Text #2
    ID : 6
    Format : PGS
    Muxing mode : zlib
    Codec ID : S_HDMV/PGS
    Codec ID/Info : The same subtitle format used on BDs/HD-DVDs
    Language : English
    Default : No
    Forced : No

    Text #3
    ID : 7
    Format : UTF-8
    Codec ID : S_TEXT/UTF8
    Codec ID/Info : UTF-8 Plain Text
    Default : Yes
    Forced : Yes




    Nazwa pliku: The.Last.Samurai.2003.PL.1080p.BluRay.x264.TRUE.HD .5.1.AC3.rar
    Rozmiar uploadu: 16GB
    Rozmiar segmentu: 12 MB
    Ilość segmentów: 256*5+58
    Liczba mirrorów: 10*6


    Hasło: www.ufs.pt

    Masz problem z programem M4UDownloader? Zajrzyj do działu Poradniki & FAQ tego programu.


    Zawartość Ukryta. Kliknij "PODZIĘKUJ" żeby zobaczyć hashcode. (ikonka browara)

    Upload zawiera 10% danych naprawczych!
    Jak korzystać z danych naprawczych? Tutaj znajdziesz poradnik!
    Upload wykonany w M4UD 2.1.0
    Ostatnio edytowane przez Pumbek ; 28-02-2015 o 22:47
    ..::Member -> Full Member -> UFS Trial -> UFS Kreator -> Full Member -> UFS Uploader -> Super Uploader -> UFS Elite -> SUPER VIP -> UFS Elite -> Moderator -> Super Moderator -> UFS MASTER ->Super Moderator ->Retired -> Super Moderator -> Retired ::..

  2. Liczba osób które doceniły autora: 48


  3.    Sponsored Links




  4. #2
    Legends Awatar kadeshar
     Info : 
    Dołączył
    Sep 2008
    Posty
    6,668
     Podziękowania : 
    Podziękował: 2,001
    Doceniono: 18,211 razy w 624 postach
     UFS Stats Uploady : 
    Filmy: 205
    Gry: 135
    Programy: 3
    TV's: 89
    Inne: 49
    Małe uploady: 3
     UFS Stats Konta : 
    Gmail: 162
    Inne: 216
     Total Upload : 
    P2M UP: 1508.8 GB
     Total CA : 
    Total CA: 8830 AC
    kadeshar jest nieaktywny

    Domyślnie

    Ostatnio edytowane przez kadeshar ; 28-02-2015 o 23:18
    W razie problemów z moim uploadem proszę pisać w temacie i dokładnie opisywać problemy (nr błędu, problem z jakimi skrzynkami itd.)

  5. #3
    Full Member
     Info : 
    Dołączył
    Feb 2008
    Skąd
    UK
    Posty
    510
     Podziękowania : 
    Podziękował: 476
    Doceniono: 6 razy w 4 postach
     UFS Stats Konta : 
    Inne: 1
     Total CA : 
    Total CA: 10 AC
    CASIOPEA jest nieaktywny

    Domyślnie

    Czy ten Up jest poprawny? bo mi już 5 raz pobiera go z bledami i nawet danymi naprawczymi nie idzie go zrobić... może to cos po mojej stronie dlatego pytam.
    G?upcy s? tak pomys?owi, ?e niemo?liwe jest stworzenie czego?, z czym ka?dy g?upi by sobie nie poradzi?.

  6. #4
    Legends Awatar kadeshar
     Info : 
    Dołączył
    Sep 2008
    Posty
    6,668
     Podziękowania : 
    Podziękował: 2,001
    Doceniono: 18,211 razy w 624 postach
     UFS Stats Uploady : 
    Filmy: 205
    Gry: 135
    Programy: 3
    TV's: 89
    Inne: 49
    Małe uploady: 3
     UFS Stats Konta : 
    Gmail: 162
    Inne: 216
     Total Upload : 
    P2M UP: 1508.8 GB
     Total CA : 
    Total CA: 8830 AC
    kadeshar jest nieaktywny

    Domyślnie

    Upload pobrany i rozpakowany bez problemów.
    W razie problemów z moim uploadem proszę pisać w temacie i dokładnie opisywać problemy (nr błędu, problem z jakimi skrzynkami itd.)

  7. #5
    Full Member
     Info : 
    Dołączył
    Feb 2008
    Skąd
    UK
    Posty
    510
     Podziękowania : 
    Podziękował: 476
    Doceniono: 6 razy w 4 postach
     UFS Stats Konta : 
    Inne: 1
     Total CA : 
    Total CA: 10 AC
    CASIOPEA jest nieaktywny

    Domyślnie

    ok dzięki to szukam dziury u siebie w takim razie...
    G?upcy s? tak pomys?owi, ?e niemo?liwe jest stworzenie czego?, z czym ka?dy g?upi by sobie nie poradzi?.

Informacje o wątku

Użytkownicy przeglądający ten wątek

Aktualnie 1 użytkownik(ów) przegląda ten wątek. (0 zarejestrowany(ch) oraz 1 gości)

Uprawnienia umieszczania postów

  • Nie możesz zakładać nowych tematów
  • Nie możesz pisać wiadomości
  • Nie możesz dodawać załączników
  • Nie możesz edytować swoich postów
  •