Aktualizacje seriali
 



Ogłoszenia
UFS - dotacje
Dotacje SMS
Jak korzystać z forumowej szukajki



Pokaż wyniki od 1 do 2 z 2

Wątek: Synowie Anarchii[Sezon5][2012][BRRip][LEK-PL]

  1. #1
    CHELSEA LONDYN & BROOKLYN NETS <3 Awatar Pumbek
     Info : 
    Dołączył
    Jan 2007
    Skąd
    ZCH
    Posty
    4,344
     Podziękowania : 
    Podziękował: 794
    Doceniono: 24,654 razy w 540 postach
     UFS Stats Uploady : 
    Filmy: 568
    Gry: 201
    Programy: 17
    TV's: 167
    Muzyka: 70
    Porno: 15
    Inne: 7
    Małe uploady: 7
     UFS Stats Konta : 
    Gmail: 107
    Inne: 124
     Total Upload : 
    P2M UP: 4800.15 GB
     Total CA : 
    Total CA: 15070 AC
    Pumbek jest nieaktywny

    m4ud Synowie Anarchii[Sezon5][2012][BRRip][LEK-PL]

    Synowie Anarchii



    Gatunek: Dramat, Akcja
    Zdjęcia: John C. Flinn IIIEdward J. Pei(więcej...)
    Muzyka: Bob Thiele Jr.


    Producent wykonawczy "Świata gliniarzy" przedstawia fascynujący serial, który zabiera widza do brutalnego, bezwzględnego świata wyjętych spod prawa motocyklistów. Synowie Anarchii żyją, jeżdżą i umierają dla swoich braci. Kiedy lider klubu (Ron Perlman) i jego żona (Katey Sagal) prowadzą resztę w stronę eskalującego bezprawia, jej syn Jax (Charlie Hunnam) musi wybierać pomiędzy lojalnością a dziedzictwem. Oto pierwszy sezon tego przepełnionego adrenaliną serialu.


    Charlie Hunnam - Jackson "Jax" Teller
    Katey Sagal - Gemma Teller Morrow
    Ron Perlman - Clarence "Clay" Morrow
    Ryan Hurst - Harry "Opie" Winston
    Maggie Siff - Tara Knowles
    Mark Boone Junior - Robert "Bobby" Munson
    Tommy Flanagan - Filip "Chibs" Telford
    Kim Coates - Alex "Tig" Trager






    Format : AVI
    Format/Info : Audio Video Interleave
    File size : 562 MiB
    Duration : 47mn 0s
    Overall bit rate : 1 671 Kbps
    Writing application : Lavf53.0.3

    Video
    ID : 0
    Format : xvid
    Codec ID : xvid
    Duration : 47mn 0s
    Bit rate : 1 500 Kbps
    Width : 720 pixels
    Height : 400 pixels
    Display aspect ratio : 16:9
    Frame rate : 23.976 fps
    Bits/(Pixel*Frame) : 0.217
    Stream size : 504 MiB (90%)

    Audio
    ID : 1
    Format : AC-3
    Format/Info : Audio Coding 3
    Mode extension : CM (complete main)
    Format settings, Endianness : Big
    Codec ID : 2000
    Duration : 47mn 0s
    Bit rate mode : Constant
    Bit rate : 160 Kbps
    Channel count : 2 channels
    Channel positions : Front: L R
    Sampling rate : 48.0 KHz
    Bit depth : 16 bits
    Compression mode : Lossy
    Stream size : 53.8 MiB (10%)
    Alignment : Aligned on interleaves
    Interleave, duration : 32 ms (0.77 video frame)



    Nazwa pliku: Sons Of Anarchy S05.rar
    Rozmiar uploadu: 6GB
    Rozmiar segmentu: 12 MB
    Ilość segmentów: 148*5
    Liczba mirrorów: 8*5
    Uploader: Pumbek
    Upload dla: ufs
    Hasło: www.ufs.pt

    Masz problem z programem M4UDownloader? Zajrzyj do działu Poradniki & FAQ tego programu.


    Zawartość Ukryta. Kliknij "PODZIĘKUJ" żeby zobaczyć hashcode. (ikonka browara)
    Upload zawiera 10% danych naprawczych!
    Jak korzystać z danych naprawczych? Tutaj znajdziesz poradnik!
    Ostatnio edytowane przez Pumbek ; 15-02-2015 o 19:24
    ..::Member -> Full Member -> UFS Trial -> UFS Kreator -> Full Member -> UFS Uploader -> Super Uploader -> UFS Elite -> SUPER VIP -> UFS Elite -> Moderator -> Super Moderator -> UFS MASTER ->Super Moderator ->Retired -> Super Moderator -> Retired ::..

  2. Liczba osób które doceniły autora: 89


  3.    Sponsored Links




  4. #2
    Hodie mihi cras tibi Awatar Gwyn
     Info : 
    Dołączył
    May 2011
    Skąd
    Turek/Poznań
    Posty
    5,744
     Podziękowania : 
    Podziękował: 1,796
    Doceniono: 20,324 razy w 373 postach
     UFS Stats Uploady : 
    Filmy: 229
    Gry: 194
    TV's: 44
    Porno: 4
     UFS Stats Konta : 
    Gmail: 133
    Inne: 289
     Total Upload : 
    P2M UP: 4080.65 GB
     Total CA : 
    Total CA: 10605 AC
    Gwyn jest nieaktywny

    Domyślnie

    Ostatnio edytowane przez Gwyn ; 16-02-2015 o 16:33



    Wstawka się spodobała? Nie zapomnij podziękować!

Informacje o wątku

Użytkownicy przeglądający ten wątek

Aktualnie 1 użytkownik(ów) przegląda ten wątek. (0 zarejestrowany(ch) oraz 1 gości)

Podobne wątki

  1. 9.5GB Synowie Anarchii [Sezon 6][2014][WEB-DL][AC3][LEK-PL]
    Przez RAZOM w dziale Pełne Sezony [Dział od rangi Full Member]
    Odpowiedzi: 1
    Ostatni post / autor: 04-02-2015, 20:14

Uprawnienia umieszczania postów

  • Nie możesz zakładać nowych tematów
  • Nie możesz pisać wiadomości
  • Nie możesz dodawać załączników
  • Nie możesz edytować swoich postów
  •