Aktualizacje seriali
 



Ogłoszenia
UFS - dotacje
Dotacje SMS
Jak korzystać z forumowej szukajki



Pokaż wyniki od 1 do 2 z 2

Wątek: Horrible Bosses 2 [2014][BRRip][720p][x264][AC3][ENG]

  1. #1
    .::dEpeChe mOde::. Awatar DM
     Info : 
    Dołączył
    Mar 2008
    Skąd
    Klucze
    Posty
    2,580
     Podziękowania : 
    Podziękował: 663
    Doceniono: 40,359 razy w 269 postach
     UFS Stats Uploady : 
    Filmy: 347
    Gry: 16
    Programy: 1
    TV's: 43
    Muzyka: 3
    Porno: 7
    Inne: 9
     UFS Stats Konta : 
    Gmail: 36
    Inne: 79
     Total Upload : 
    P2M UP: 1723.92 GB
     Total CA : 
    Total CA: 1275 AC
    DM jest nieaktywny

    m4ud Horrible Bosses 2 [2014][BRRip][720p][x264][AC3][ENG]

    Szefowie wrogowie 2
    Horrible Bosses 2



    Gatunek: Komedia
    Produkcja: USA
    Data Premiery: 28 listopada 2014 (Polska) 12 listopada 2014 (świat)
    Reżyseria: Sean Anders
    Scenariusz: Sean Anders, John Morris
    Zdjęcia: Julio Macat
    Muzyka: Christopher Lennertz
    Dystrybucja: Warner Bros. Entertainment Polska Sp. z o. o.


    Mając po uszy pracy pod dyktando szefów, Nick (Jason Bateman), Dale (Charlie Day) i Kurt (Jason Sudeikis) postanawiają tym razem przejąć ster i założyć własny biznes. Wkrótce jednak ich plany krzyżuje przebiegły inwestor. Oszukani, zdesperowani i bez możliwości dochodzenia swoich praw, trzej niedoszli przedsiębiorcy opracowują plan porwania dorosłego syna inwestora w celu odzyskania kontroli nad firmą.


    Jason Bateman - Nick Hendricks
    Jason Sudeikis - Kurt Buckman
    Charlie Day - Dale Arbus
    Jennifer Aniston - Dr Julia Harris
    Kevin Spacey - Dave Harken
    Jamie Foxx - Dean "MF" Jones
    Chris Pine - Rex Hanson
    Christoph Waltz - Bert Hanson








    Video
    ID : 1
    Format : AVC
    Format/Info : Advanced Video Codec
    Format profile : High@L3.1
    Format settings, CABAC : Yes
    Format settings, ReFrames : 4 frames
    Codec ID : V_MPEG4/ISO/AVC
    Duration : 1h 55mn
    Bit rate : 3 138 Kbps
    Width : 1 280 pixels
    Height : 528 pixels
    Display aspect ratio : 2.40:1
    Frame rate mode : Constant
    Frame rate : 23.976 fps
    Color space : YUV
    Chroma subsampling : 4:2:0
    Bit depth : 8 bits
    Scan type : Progressive
    Bits/(Pixel*Frame) : 0.194
    Stream size : 2.47 GiB (85%)

    Audio
    ID : 2
    Format : AC-3
    Format/Info : Audio Coding 3
    Mode extension : CM (complete main)
    Format settings, Endianness : Big
    Codec ID : A_AC3
    Duration : 1h 55mn
    Bit rate mode : Constant
    Bit rate : 448 Kbps
    Channel(s) : 6 channels
    Channel positions : Front: L C R, Side: L R, LFE
    Sampling rate : 48.0 KHz
    Bit depth : 16 bits
    Compression mode : Lossy
    Delay relative to video : 30ms
    Stream size : 371 MiB (13%)


    Nazwa uploadu: Horrible Bosses 2 2014.720p.BRRip.AC3.x264-DM
    Nazwa pliku: Horrible Bosses 2 2014.720p.BRRip.AC3.x264-DM.mkv
    Rozmiar uploadu: 2964 MB
    Rozmiar segmentu: 10 MB
    Ilość segmentów: 297
    Liczba mirrorów: 10
    Uploader: dm
    Upload dla: ufs
    Hasło: www.ufs.pt

    Masz problem z programem M4UDownloader? Zajrzyj do działu Poradniki & FAQ tego programu.


    Zawartość Ukryta. Kliknij "PODZIĘKUJ" żeby zobaczyć hashcode. (ikonka browara)

  2. Liczba osób które doceniły autora: 235


  3.    Sponsored Links




  4. #2
    Retired Awatar ZielonY
     Info : 
    Dołączył
    Dec 2013
    Skąd
    ja to znam?
    Posty
    7,742
     Podziękowania : 
    Podziękował: 3,103
    Doceniono: 13,577 razy w 267 postach
     UFS Stats Uploady : 
    Filmy: 144
    Gry: 9
    Programy: 1
    TV's: 19
    Muzyka: 13
    Porno: 2
    Małe uploady: 1
     UFS Stats Konta : 
    Gmail: 28
    Inne: 167
     Total Upload : 
    P2M UP: 1030.38 GB
     Total CA : 
    Total CA: 6695 AC
    ZielonY jest nieaktywny

    Domyślnie

    niezatwierdzone
    Ostatnio edytowane przez ZielonY ; 13-02-2015 o 17:21

    Member > Full Member > UFS Trial > UFS Uploader > Super Uploader > UFS Elite > Super Vip > UFS Elite >Moderator > Super Moderator > Retired

Informacje o wątku

Użytkownicy przeglądający ten wątek

Aktualnie 1 użytkownik(ów) przegląda ten wątek. (0 zarejestrowany(ch) oraz 1 gości)

Podobne wątki

  1. 0.7GB Alexander and the Terrible, Horrible, No Good, Very Bad Day [2014][WEBRip][ENG][Napisy PL]
    Przez Szatan w dziale HQ (High Quality - Wysoka Jakość)
    Odpowiedzi: 1
    Ostatni post / autor: 06-01-2015, 16:29
  2. 0.7GB Horrible Bosses [2011][DVDRip][ENG]
    Przez smolo w dziale HQ (High Quality - Wysoka Jakość)
    Odpowiedzi: 1
    Ostatni post / autor: 23-09-2011, 18:20

Uprawnienia umieszczania postów

  • Nie możesz zakładać nowych tematów
  • Nie możesz pisać wiadomości
  • Nie możesz dodawać załączników
  • Nie możesz edytować swoich postów
  •