Aktualizacje seriali
 



Ogłoszenia
UFS - dotacje
Dotacje SMS
Jak korzystać z forumowej szukajki



Pokaż wyniki od 1 do 2 z 2

Wątek: Cake [2014][DVDScr][AC3][ENG]

  1. #1
    Retired Awatar RAZOM
     Info : 
    Dołączył
    Apr 2014
    Skąd
    Internet
    Posty
    6,439
     Podziękowania : 
    Podziękował: 1,162
    Doceniono: 187,828 razy w 1,931 postach
     UFS Stats Uploady : 
    Filmy: 1175
    Gry: 268
    TV's: 270
    Muzyka: 51
    Porno: 1
    Inne: 6
     UFS Stats Konta : 
    Gmail: 24
    Inne: 296
     Total Upload : 
    P2M UP: 12642.4 GB
     Total CA : 
    Total CA: 6285 AC
    RAZOM jest nieaktywny

    m4ud Cake [2014][DVDScr][AC3][ENG]

    Cake



    Gatunek: Dramat, Komedia,
    Produkcja: Francja, Niemcy, USA,
    Premiera: Brak danych
    Reżyseria: Brak danych
    Scenariusz: Patrick Tobin
    Muzyka: Brak Danych
    Zdjęcia: Rachel Morrison,
    Dystrybucja: Brak danych
    Ocena: 6,0/10



    Claire Simmons należy do grupy wsparcia dla osób cierpiących na chroniczny ból. Jedna z członkiń popełnia samobójstwo, co odbija się na życiu kobiety.












    Format : AVI
    Format/Info : Audio Video Interleave
    File size : 1.43 GiB
    Duration : 1h 43mn
    Overall bit rate : 1 990 Kbps
    Writing application : Nandub v1.0rc2
    Writing library : Nandub build 1853/release

    Video
    ID : 0
    Format : MPEG-4 Visual
    Format profile : Advanced Simple@L5
    Format settings, BVOP : 2
    Format settings, QPel : Yes
    Format settings, GMC : No warppoints
    Format settings, Matrix : Default (H.263)
    Muxing mode : Packed bitstream
    Codec ID : XVID
    Codec ID/Hint : XviD
    Duration : 1h 43mn
    Bit rate : 1 596 Kbps
    Width : 720 pixels
    Height : 278 pixels
    Display aspect ratio : 2.590
    Frame rate : 23.976 fps
    Color space : YUV
    Chroma subsampling : 4:2:0
    Bit depth : 8 bits
    Scan type : Progressive
    Compression mode : Lossy
    Bits/(Pixel*Frame) : 0.333
    Stream size : 1.15 GiB (80%)
    Writing library : XviD 1.2.1 (UTC 2008-12-04)

    Audio
    ID : 1
    Format : AC-3
    Format/Info : Audio Coding 3
    Mode extension : CM (complete main)
    Format settings, Endianness : Big
    Codec ID : 2000
    Duration : 1h 43mn
    Bit rate mode : Constant
    Bit rate : 384 Kbps
    Channel(s) : 2 channels
    Channel positions : Front: L R
    Sampling rate : 48.0 KHz
    Bit depth : 16 bits
    Compression mode : Lossy
    Stream size : 283 MiB (19%)
    Alignment : Split accross interleaves
    Interleave, duration : 42 ms (1.00 video frame)
    Interleave, preload duration : 500 ms



    Nazwa uploadu: Cake.2014.DVDScr.XVID.AC3.HQ.Hive-CM8
    Nazwa pliku: Cake.2014.DVDScr.XVID.AC3.HQ.Hive-CM8.avi
    Rozmiar uploadu: 1468 MB
    Ilość segmentów: 164
    Rozmiar segmentu: 9 MB
    Liczba mirrorów: 10


    Hasło: www.ufs.pt


    Masz problem z programem M4UDownloader? Zajrzyj do działu Poradniki & FAQ tego programu.


    Zawartość Ukryta. Kliknij "PODZIĘKUJ" żeby zobaczyć hashcode. (ikonka browara)




    Novy Rządzi
    Zapostowane za pomocą Novy Rządzi Releaser
    Ostatnio edytowane przez kadeshar ; 13-01-2015 o 19:28
    Jeśli coś nie działa, czegoś potrzebujesz pisz na PW, nie mam czasu żeby sprawdzać wszystkich komentarzy.
    Pakuje uploady WinRar'em 5.1+, używaj do wypakowania takiego lub nowszego.

  2. Liczba osób które doceniły autora: 70


  3.    Sponsored Links




  4. #2
    Legends Awatar kadeshar
     Info : 
    Dołączył
    Sep 2008
    Posty
    6,668
     Podziękowania : 
    Podziękował: 2,001
    Doceniono: 18,211 razy w 624 postach
     UFS Stats Uploady : 
    Filmy: 205
    Gry: 135
    Programy: 3
    TV's: 89
    Inne: 49
    Małe uploady: 3
     UFS Stats Konta : 
    Gmail: 162
    Inne: 216
     Total Upload : 
    P2M UP: 1508.8 GB
     Total CA : 
    Total CA: 8830 AC
    kadeshar jest nieaktywny

    Domyślnie

    Ostatnio edytowane przez kadeshar ; 13-01-2015 o 19:31
    W razie problemów z moim uploadem proszę pisać w temacie i dokładnie opisywać problemy (nr błędu, problem z jakimi skrzynkami itd.)

Informacje o wątku

Użytkownicy przeglądający ten wątek

Aktualnie 1 użytkownik(ów) przegląda ten wątek. (0 zarejestrowany(ch) oraz 1 gości)

Podobne wątki

  1. Layer Cake [2004][DVDRip][ENG]
    Przez Pumbek w dziale HQ (High Quality - Wysoka Jakość)
    Odpowiedzi: 1
    Ostatni post / autor: 14-09-2010, 10:31

Uprawnienia umieszczania postów

  • Nie możesz zakładać nowych tematów
  • Nie możesz pisać wiadomości
  • Nie możesz dodawać załączników
  • Nie możesz edytować swoich postów
  •