Aktualizacje seriali
 



Ogłoszenia
UFS - dotacje
Dotacje SMS
Jak korzystać z forumowej szukajki



Pokaż wyniki od 1 do 2 z 2

Wątek: U-571 [2000][BRRip][AC3][ENG]

  1. #1
    Retired Awatar RAZOM
     Info : 
    Dołączył
    Apr 2014
    Skąd
    Internet
    Posty
    6,439
     Podziękowania : 
    Podziękował: 1,162
    Doceniono: 187,656 razy w 1,931 postach
     UFS Stats Uploady : 
    Filmy: 1175
    Gry: 268
    TV's: 270
    Muzyka: 51
    Porno: 1
    Inne: 6
     UFS Stats Konta : 
    Gmail: 24
    Inne: 296
     Total Upload : 
    P2M UP: 12642.4 GB
     Total CA : 
    Total CA: 6285 AC
    RAZOM jest nieaktywny

    m4ud U-571 [2000][BRRip][AC3][ENG]

    U-571



    Produkcja: Francja | USA
    Data Premiery: 2000-11-03 (kino), 2000-04-17 (świat), 2010-07-12 (dvd)
    Reżyseria: Jonathan Mostow
    Scenariusz: Sam Montgomery, Jonathan Mostow
    Czas trwania: 116 minut
    Dystrybucja: Monolith Films
    Gatunek: Dramat | Akcja | Wojenny
    Ocena: 6,9 / 10



    "Stado wilków", niemiecka eskadra łodzi podwodnych, ma za zadanie zniszczyć każdy okręt aliancki. U-571 nie ma szczęścia - zostaje storpedowana przez amerykański niszczyciel. Co więcej, Amerykanie wpadają na szatański pomysł wysłania własnej łodzi podwodnej S-33 "ucharakteryzowanej" na niemiecką łódź ratunkową. S-33 ma podstępem przejąć kontrolę nad uszkodzoną U-571 i wykraść Enigmę - niemieckie urządzenie szyfrujące. (opis dystrybutora)



    Por. Andrew Tyler - Matthew McConaughey
    Por. kmdr Mike Dahlgren - Bill Paxton
    Henry Klough - Harvey Keitel
    Por. Pete Emmett - Jon Bon Jovi
    Mjr Matthew Coonan - David Keith
    Kpt. Gunther Wassner - Thomas Kretschmann
    Por. Hirsch - Jake Weber
    Bill Wentz, marynarz - Jack Noseworthy







    Format : AVI
    Format/Info : Audio Video Interleave
    Format profile : OpenDML
    Format settings : rec
    File size : 1.79 GiB
    Duration : 1h 56mn
    Overall bit rate : 2 209 Kbps
    Writing application : AVI-Mux GUI 1.17.8.3, Feb 16 201019:42:50

    Video
    ID : 0
    Format : MPEG-4 Visual
    Format profile : Advanced Simple@L5
    Format settings, BVOP : 2
    Format settings, QPel : No
    Format settings, GMC : No warppoints
    Format settings, Matrix : Default (H.263)
    Codec ID : XVID
    Codec ID/Hint : XviD
    Duration : 1h 56mn
    Bit rate : 1 756 Kbps
    Width : 704 pixels
    Height : 304 pixels
    Display aspect ratio : 2.35:1
    Frame rate : 23.976 fps
    Color space : YUV
    Chroma subsampling : 4:2:0
    Bit depth : 8 bits
    Scan type : Progressive
    Compression mode : Lossy
    Bits/(Pixel*Frame) : 0.342
    Stream size : 1.43 GiB (79%)
    Writing library : XviD 1.2.1 (UTC 2008-12-04)

    Audio
    ID : 1
    Format : AC-3
    Format/Info : Audio Coding 3
    Mode extension : CM (complete main)
    Codec ID : 2000
    Duration : 1h 56mn
    Bit rate mode : Constant
    Bit rate : 448 Kbps
    Channel(s) : 2 channels
    Channel positions : Front: L R
    Sampling rate : 48.0 KHz
    Bit depth : 16 bits
    Compression mode : Lossy
    Stream size : 373 MiB (20%)
    Alignment : Aligned on interleaves
    Interleave, duration : 64 ms (1.53 video frames)
    Interleave, preload duration : 192 ms



    Nazwa uploadu: U-571_br_massive_enc
    Nazwa pliku: U-571_br_massive_enc.avi
    Rozmiar uploadu: 1837 MB
    Ilość segmentów: 205
    Rozmiar segmentu: 9 MB
    Liczba mirrorów: 8
    Hasło: www.ufs.pt

    Masz problem z programem M4UDownloader? Zajrzyj do działu Poradniki & FAQ tego programu.


    Zawartość Ukryta. Kliknij "PODZIĘKUJ" żeby zobaczyć hashcode. (ikonka browara)
    Upload wykonany w M4UD 2.1.0
    Ostatnio edytowane przez RAZOM ; 10-01-2015 o 18:10
    Jeśli coś nie działa, czegoś potrzebujesz pisz na PW, nie mam czasu żeby sprawdzać wszystkich komentarzy.
    Pakuje uploady WinRar'em 5.1+, używaj do wypakowania takiego lub nowszego.

  2. Liczba osób które doceniły autora: 23


  3.    Sponsored Links




  4. #2
    Legends Awatar kadeshar
     Info : 
    Dołączył
    Sep 2008
    Posty
    6,668
     Podziękowania : 
    Podziękował: 2,001
    Doceniono: 18,209 razy w 624 postach
     UFS Stats Uploady : 
    Filmy: 205
    Gry: 135
    Programy: 3
    TV's: 89
    Inne: 49
    Małe uploady: 3
     UFS Stats Konta : 
    Gmail: 162
    Inne: 216
     Total Upload : 
    P2M UP: 1508.8 GB
     Total CA : 
    Total CA: 8830 AC
    kadeshar jest nieaktywny

    Domyślnie

    Ostatnio edytowane przez kadeshar ; 11-01-2015 o 22:17
    W razie problemów z moim uploadem proszę pisać w temacie i dokładnie opisywać problemy (nr błędu, problem z jakimi skrzynkami itd.)

Informacje o wątku

Użytkownicy przeglądający ten wątek

Aktualnie 1 użytkownik(ów) przegląda ten wątek. (0 zarejestrowany(ch) oraz 1 gości)

Podobne wątki

  1. 3GB X-Men [2000][BRRip][720p][AC3][LEK-PL]
    Przez Infinity w dziale Filmy High Definition [Dział od rangi Full Member]
    Odpowiedzi: 1
    Ostatni post / autor: 31-10-2014, 17:37
  2. 2.5GB X-Men [2000][BRRip][720p][AC3][LEK-PL]
    Przez SilentDeVir w dziale Filmy High Definition [Dział od rangi Full Member]
    Odpowiedzi: 3
    Ostatni post / autor: 30-11-2012, 12:45

Uprawnienia umieszczania postów

  • Nie możesz zakładać nowych tematów
  • Nie możesz pisać wiadomości
  • Nie możesz dodawać załączników
  • Nie możesz edytować swoich postów
  •