Aktualizacje seriali
 



Ogłoszenia
UFS - dotacje
Dotacje SMS
Jak korzystać z forumowej szukajki



Pokaż wyniki od 1 do 2 z 2

Wątek: Used Cars [1980][DVDRip][AC3][ENG]

  1. #1
    Retired Awatar RAZOM
     Info : 
    Dołączył
    Apr 2014
    Skąd
    Internet
    Posty
    6,439
     Podziękowania : 
    Podziękował: 1,162
    Doceniono: 188,027 razy w 1,931 postach
     UFS Stats Uploady : 
    Filmy: 1175
    Gry: 268
    TV's: 270
    Muzyka: 51
    Porno: 1
    Inne: 6
     UFS Stats Konta : 
    Gmail: 24
    Inne: 296
     Total Upload : 
    P2M UP: 12642.4 GB
     Total CA : 
    Total CA: 6285 AC
    RAZOM jest nieaktywny

    m4ud Used Cars [1980][DVDRip][AC3][ENG]

    Used Cars



    Produkcja: USA
    Data Premiery: 1980-07-11 (świat)
    Reżyseria: Robert Zemeckis
    Scenariusz: Robert Zemeckis, Bob Gale
    Czas trwania: 111 minut
    Dystrybucja:
    Gatunek: Komedia
    Ocena: 6,9 / 10



    Pewnego dnia stary właściciel komiksu z używanymi samochodami odchodzi z tego świata. Nie chcąc stracić pracy, jego zaradni pracownicy postanawiają zakopać go z jego ulubionym samochodem, a wszystkim rozpowiedzieć, że wyjechał na wakacje. Niestety po jakimś czasie cała sprawa wychodzi na jaw i komis ma przejąć jego zachłanny brat. W tym samym czasie pojawia się córka właściciela, która może przejąć komiks pod warunkiem, że długość wszystkich znajdujących się w nim samochodów będzie miała mile. (derik1984)



    Rudolph "Rudy" Russo - Kurt Russell
    Roy L. Fuchs / Luke Fuchs - Jack Warden
    Jeff - Gerrit Graham
    Jim, mechanik - Frank McRae
    Barbara Jane Fuchs - Deborah Harmon
    Sam Slaton - Joe Flaherty
    Freddie Paris - David L. Lander
    Eddie Winslow - Michael McKean









    General
    Format : AVI
    Format/Info : Audio Video Interleave
    Format profile : OpenDML
    File size : 1.40 GiB
    Duration : 1h 52mn
    Overall bit rate : 1 774 Kbps
    Movie name : 06:28:36.625
    Writing application : AVI-Mux GUI 1.17.8, Aug 30 2008 12:36:58

    Video
    ID : 0
    Format : MPEG-4 Visual
    Format profile : Advanced Simple@L5
    Format settings, BVOP : Yes
    Format settings, QPel : No
    Format settings, GMC : No warppoints
    Format settings, Matrix : Default (H.263)
    Codec ID : XVID
    Codec ID/Hint : XviD
    Duration : 1h 52mn
    Bit rate : 1 576 Kbps
    Width : 624 pixels
    Height : 336 pixels
    Display aspect ratio : 1.857
    Frame rate : 23.976 fps
    Color space : YUV
    Chroma subsampling : 4:2:0
    Bit depth : 8 bits
    Scan type : Progressive
    Compression mode : Lossy
    Bits/(Pixel*Frame) : 0.314
    Stream size : 1.24 GiB (89%)
    Writing library : XviD 1.2.1 (UTC 2008-12-04)

    Audio
    ID : 1
    Format : AC-3
    Format/Info : Audio Coding 3
    Mode extension : CM (complete main)
    Codec ID : 2000
    Duration : 1h 52mn
    Bit rate mode : Constant
    Bit rate : 192 Kbps
    Channel(s) : 2 channels
    Channel positions : Front: L R
    Sampling rate : 48.0 KHz
    Bit depth : 16 bits
    Compression mode : Lossy
    Stream size : 155 MiB (11%)
    Alignment : Aligned on interleaves
    Interleave, duration : 64 ms (1.53 video frames)
    Interleave, preload duration : 288 ms
    Title : VTS_01_1 T80 2_0ch 192Kbps DELAY 0ms_new



    Nazwa uploadu: Used Cars(1980)-DVDRIp Xvid-THC
    Nazwa pliku: Used Cars(1980)-DVDRIp Xvid-THC.avi
    Rozmiar uploadu: 1429 MB
    Ilość segmentów: 159
    Rozmiar segmentu: 9 MB
    Liczba mirrorów: 8
    Hasło: www.ufs.pt

    Masz problem z programem M4UDownloader? Zajrzyj do działu Poradniki & FAQ tego programu.


    Zawartość Ukryta. Kliknij "PODZIĘKUJ" żeby zobaczyć hashcode. (ikonka browara)
    Upload wykonany w M4UD 2.1.0
    Ostatnio edytowane przez kadeshar ; 10-01-2015 o 17:05
    Jeśli coś nie działa, czegoś potrzebujesz pisz na PW, nie mam czasu żeby sprawdzać wszystkich komentarzy.
    Pakuje uploady WinRar'em 5.1+, używaj do wypakowania takiego lub nowszego.

  2. Liczba osób które doceniły autora: 11


  3.    Sponsored Links




  4. #2
    Legends Awatar kadeshar
     Info : 
    Dołączył
    Sep 2008
    Posty
    6,668
     Podziękowania : 
    Podziękował: 2,001
    Doceniono: 18,219 razy w 624 postach
     UFS Stats Uploady : 
    Filmy: 205
    Gry: 135
    Programy: 3
    TV's: 89
    Inne: 49
    Małe uploady: 3
     UFS Stats Konta : 
    Gmail: 162
    Inne: 216
     Total Upload : 
    P2M UP: 1508.8 GB
     Total CA : 
    Total CA: 8830 AC
    kadeshar jest nieaktywny

    Domyślnie

    W razie problemów z moim uploadem proszę pisać w temacie i dokładnie opisywać problemy (nr błędu, problem z jakimi skrzynkami itd.)

Informacje o wątku

Użytkownicy przeglądający ten wątek

Aktualnie 1 użytkownik(ów) przegląda ten wątek. (0 zarejestrowany(ch) oraz 1 gości)

Uprawnienia umieszczania postów

  • Nie możesz zakładać nowych tematów
  • Nie możesz pisać wiadomości
  • Nie możesz dodawać załączników
  • Nie możesz edytować swoich postów
  •