Aktualizacje seriali
 



Ogłoszenia
UFS - dotacje
Dotacje SMS
Jak korzystać z forumowej szukajki



Pokaż wyniki od 1 do 2 z 2

Wątek: Birdman [2014][DVDScr][AC3][ENG]

  1. #1
    .::dEpeChe mOde::. Awatar DM
     Info : 
    Dołączył
    Mar 2008
    Skąd
    Klucze
    Posty
    2,583
     Podziękowania : 
    Podziękował: 666
    Doceniono: 40,363 razy w 269 postach
     UFS Stats Uploady : 
    Filmy: 347
    Gry: 16
    Programy: 1
    TV's: 43
    Muzyka: 3
    Porno: 7
    Inne: 9
     UFS Stats Konta : 
    Gmail: 36
    Inne: 79
     Total Upload : 
    P2M UP: 1723.92 GB
     Total CA : 
    Total CA: 1275 AC
    DM jest nieaktywny

    m4ud Birdman [2014][DVDScr][AC3][ENG]

    Birdman
    Birdman



    Gatunek: Komedia, Dramat
    Produkcja: USA, Francja
    Data Premiery: 2015-02-27 (kino) , 2014-08-27 (świat)
    Reżyseria: Alejandro González I~nárritu
    Scenariusz: Alejandro González I~nárritu, Nicolás Giacobone
    Zdjęcia: Emmanuel Lubezki
    Muzyka: Antonio Sanchez
    Dystrybucja: Imperial - CinePix


    Tragikomiczne perypetie aktora, który niegdyś zyskał sławę jako bohater serii hollywoodzkich filmów o komiksowym superbohaterze, a teraz próbuje wystawić na Broadwayu sztukę we własnej adaptacji i reżyserii, z sobą samym w roli głównej. Jeśli chce doprowadzić do premiery, musi stawić czoło licznym przeciwnościom losu i własnemu ego, odzyskać zaufanie bliskich, odbudować zrujnowaną karierę i odnaleźć siebie. (opis dystrybutora)


    Emma Stone - Sam Thomson, córka Riggana Thomsona
    Edward Norton - Mike Shiner
    Naomi Watts - Lesley
    Michael Keaton - Riggan Thomson / Birdman
    Andrea Riseborough - Laura
    Zach Galifianakis - Brandon Vander Hey
    Amy Ryan - Griffin Murray
    Merritt Wever - Annie








    Video
    ID : 0
    Format : MPEG-4 Visual
    Format profile : Advanced Simple@L5
    Format settings, BVOP : 2
    Format settings, QPel : No
    Format settings, GMC : No warppoints
    Format settings, Matrix : Default (H.263)
    Codec ID : XVID
    Codec ID/Hint : XviD
    Duration : 1h 59mn
    Bit rate : 1 097 Kbps
    Width : 720 pixels
    Height : 384 pixels
    Display aspect ratio : 1.85:1
    Frame rate : 23.976 fps
    Color space : YUV
    Chroma subsampling : 4:2:0
    Bit depth : 8 bits
    Scan type : Progressive
    Compression mode : Lossy
    Bits/(Pixel*Frame) : 0.165
    Stream size : 935 MiB (81%)
    Writing library : XviD 64

    Audio
    ID : 1
    Format : AC-3
    Format/Info : Audio Coding 3
    Mode extension : CM (complete main)
    Format settings, Endianness : Big
    Codec ID : 2000
    Duration : 1h 59mn
    Bit rate mode : Constant
    Bit rate : 256 Kbps
    Channel(s) : 6 channels
    Channel positions : Front: L C R, Side: L R, LFE
    Sampling rate : 48.0 KHz
    Bit depth : 16 bits
    Compression mode : Lossy
    Stream size : 218 MiB (19%)
    Alignment : Split accross interleaves
    Interleave, duration : 42 ms (1.00 video frame)
    Interleave, preload duration : 500 ms


    Nazwa uploadu: Birdman.2014.DVDSCR.XViD.AC3-H34LTH
    Nazwa pliku: Birdman.2014.DVDSCR.XViD.AC3-H34LTH.avi
    Rozmiar uploadu: 1161 MB
    Rozmiar segmentu: 10 MB
    Ilość segmentów: 117
    Liczba mirrorów: 9
    Uploader: dm
    Upload dla: ufs
    Hasło: www.ufs.pt

    Masz problem z programem M4UDownloader? Zajrzyj do działu Poradniki & FAQ tego programu.


    Zawartość Ukryta. Kliknij "PODZIĘKUJ" żeby zobaczyć hashcode. (ikonka browara)

  2. Liczba osób które doceniły autora: 161


  3.    Sponsored Links




  4. #2
    VIPcio Awatar Zarazek
     Info : 
    Dołączył
    Jan 2008
    Posty
    1,696
     Podziękowania : 
    Podziękował: 728
    Doceniono: 2,058 razy w 77 postach
     UFS Stats Uploady : 
    Filmy: 78
    Gry: 17
    Programy: 2
    TV's: 54
    Muzyka: 6
    Porno: 2
     Total Upload : 
    P2M UP: 434.55 GB
    Zarazek jest nieaktywny

    Domyślnie

    Ostatnio edytowane przez Zarazek ; 07-01-2015 o 20:39

Informacje o wątku

Użytkownicy przeglądający ten wątek

Aktualnie 1 użytkownik(ów) przegląda ten wątek. (0 zarejestrowany(ch) oraz 1 gości)

Podobne wątki

  1. 1.2GB Still Alice [2014][DVDScr][AC3][ENG]
    Przez DM w dziale HQ (High Quality - Wysoka Jakość)
    Odpowiedzi: 1
    Ostatni post / autor: 28-11-2014, 17:38
  2. 2GB The Expendables III [2014][DVDScr][AC3][ENG]
    Przez DM w dziale HQ (High Quality - Wysoka Jakość)
    Odpowiedzi: 2
    Ostatni post / autor: 31-07-2014, 20:06
  3. 1.5 GB The Expendables III [2014][DVDScr][AC3][ENG][Napisy PL]
    Przez Kingpin w dziale HQ (High Quality - Wysoka Jakość)
    Odpowiedzi: 3
    Ostatni post / autor: 30-07-2014, 00:04

Uprawnienia umieszczania postów

  • Nie możesz zakładać nowych tematów
  • Nie możesz pisać wiadomości
  • Nie możesz dodawać załączników
  • Nie możesz edytować swoich postów
  •