Aktualizacje seriali
 



Ogłoszenia
UFS - dotacje
Dotacje SMS
Jak korzystać z forumowej szukajki



Pokaż wyniki od 1 do 2 z 2

Wątek: The Imitation Game [2014][DVDScr][AC3][ENG]

  1. #1
    .::dEpeChe mOde::. Awatar DM
     Info : 
    Dołączył
    Mar 2008
    Skąd
    Klucze
    Posty
    2,583
     Podziękowania : 
    Podziękował: 666
    Doceniono: 40,361 razy w 269 postach
     UFS Stats Uploady : 
    Filmy: 347
    Gry: 16
    Programy: 1
    TV's: 43
    Muzyka: 3
    Porno: 7
    Inne: 9
     UFS Stats Konta : 
    Gmail: 36
    Inne: 79
     Total Upload : 
    P2M UP: 1723.92 GB
     Total CA : 
    Total CA: 1275 AC
    DM jest nieaktywny

    m4ud The Imitation Game [2014][DVDScr][AC3][ENG]

    Gra tajemnic
    The Imitation Game



    Gatunek: Biograficzny, Dramat, Thriller, Wojenny
    Produkcja: USA, Wielka Brytania
    Data Premiery: 2015-01-16 (kino) , 2014-08-29 (świat)
    Reżyseria: Morten Tyldum
    Scenariusz: Graham Moore, Andrew Hodges (książka
    Zdjęcia: Óscar Faura
    Muzyka: Alexandre Desplat
    Dystrybucja: Forum Film Poland


    Historią genialnego matematyka i kryptologa Alana Turinga. Zaprojektował on tak zwaną "bombę Turinga", która była urządzeniem służącym do łamania kodu Enigmy. W pierwszej połowie lat 50, na jaw wyszły informacje o jego homoseksualizmie. Chcąc uniknąć więzienia Turing wybrał terapię hormonalną, w skutek której odsunięto go od badań związanych z konstrukcją komputera. (Movieman)


    Benedict Cumberbatch - Alan Turing
    Keira Knightley - Joan Clarke
    Matthew Goode - Hugh Alexander
    Mark Strong - Stewart Menzies
    Tuppence Middleton - Helen
    Charles Dance - Kmdr Denniston
    Allen Leech - John Cairncross
    Rory Kinnear - Nock








    Video
    ID : 0
    Format : MPEG-4 Visual
    Format profile : Advanced Simple@L5
    Format settings, BVOP : 2
    Format settings, QPel : No
    Format settings, GMC : No warppoints
    Format settings, Matrix : Default (H.263)
    Codec ID : XVID
    Codec ID/Hint : XviD
    Duration : 1h 53mn
    Bit rate : 1 303 Kbps
    Width : 720 pixels
    Height : 304 pixels
    Display aspect ratio : 2.35:1
    Frame rate : 29.970 fps
    Color space : YUV
    Chroma subsampling : 4:2:0
    Bit depth : 8 bits
    Scan type : Progressive
    Compression mode : Lossy
    Bits/(Pixel*Frame) : 0.199
    Stream size : 1.04 GiB (90%)
    Writing library : XviD 64

    Audio
    ID : 1
    Format : AC-3
    Format/Info : Audio Coding 3
    Mode extension : CM (complete main)
    Format settings, Endianness : Big
    Codec ID : 2000
    Duration : 1h 53mn
    Bit rate mode : Constant
    Bit rate : 128 Kbps
    Channel(s) : 2 channels
    Channel positions : Front: L R
    Sampling rate : 48.0 KHz
    Bit depth : 16 bits
    Compression mode : Lossy
    Stream size : 104 MiB (9%)
    Alignment : Split accross interleaves
    Interleave, duration : 33 ms (1.00 video frame)
    Interleave, preload duration : 500 ms


    Nazwa uploadu: The.Imitation.Game.2014.DVDSCR.XViD.AC3-H34LTH
    Nazwa pliku: The.Imitation.Game.2014.DVDSCR.XViD.AC3-H34LTH.avi
    Rozmiar uploadu: 1174 MB
    Rozmiar segmentu: 10 MB
    Ilość segmentów: 118
    Liczba mirrorów: 9
    Uploader: dm
    Upload dla: ufs
    Hasło: www.ufs.pt

    Masz problem z programem M4UDownloader? Zajrzyj do działu Poradniki & FAQ tego programu.


    Zawartość Ukryta. Kliknij "PODZIĘKUJ" żeby zobaczyć hashcode. (ikonka browara)
    Ostatnio edytowane przez Zarazek ; 07-01-2015 o 20:20

  2. Liczba osób które doceniły autora: 305


  3.    Sponsored Links




  4. #2
    VIPcio Awatar Zarazek
     Info : 
    Dołączył
    Jan 2008
    Posty
    1,696
     Podziękowania : 
    Podziękował: 728
    Doceniono: 2,058 razy w 77 postach
     UFS Stats Uploady : 
    Filmy: 78
    Gry: 17
    Programy: 2
    TV's: 54
    Muzyka: 6
    Porno: 2
     Total Upload : 
    P2M UP: 434.55 GB
    Zarazek jest nieaktywny

    Domyślnie


Informacje o wątku

Użytkownicy przeglądający ten wątek

Aktualnie 1 użytkownik(ów) przegląda ten wątek. (0 zarejestrowany(ch) oraz 1 gości)

Podobne wątki

  1. 2.5GB NBA 2014 All-Star Game East Vs West [2014][HDTV][x264][ENG]
    Przez Marko w dziale Sport | Sports Movies
    Odpowiedzi: 1
    Ostatni post / autor: 28-02-2014, 11:20
  2. Fair Game [2010][DVDScr][AC3][ENG]
    Przez Yaro w dziale HQ (High Quality - Wysoka Jakość)
    Odpowiedzi: 1
    Ostatni post / autor: 30-01-2011, 14:08

Uprawnienia umieszczania postów

  • Nie możesz zakładać nowych tematów
  • Nie możesz pisać wiadomości
  • Nie możesz dodawać załączników
  • Nie możesz edytować swoich postów
  •