Aktualizacje seriali
 



Ogłoszenia
UFS - dotacje
Dotacje SMS
Jak korzystać z forumowej szukajki



Pokaż wyniki od 1 do 2 z 2

Wątek: 88 [2015][WEB-DL][720p][x264][AC3][ENG]

  1. #1
    Retired Awatar RAZOM
     Info : 
    Dołączył
    Apr 2014
    Skąd
    Internet
    Posty
    6,439
     Podziękowania : 
    Podziękował: 1,162
    Doceniono: 187,750 razy w 1,931 postach
     UFS Stats Uploady : 
    Filmy: 1175
    Gry: 268
    TV's: 270
    Muzyka: 51
    Porno: 1
    Inne: 6
     UFS Stats Konta : 
    Gmail: 24
    Inne: 296
     Total Upload : 
    P2M UP: 12642.4 GB
     Total CA : 
    Total CA: 6285 AC
    RAZOM jest nieaktywny

    m4ud 88 [2015][WEB-DL][720p][x264][AC3][ENG]

    88



    Director: April Mullen
    Writers: Tim Doiron (story), Tim Doiron
    Stars: Katharine Isabelle, Christopher Lloyd, Kyle Schmi
    Genres: Action | Thriller
    Country: Canada
    Language: English




    A young woman comes to in a roadside diner with no idea where she is or how she got there. Split between two timelines, she gets taken on a violent journey as she seeks out the person responsible for her lover's death.



    Director: April Mullen
    Writers: Tim Doiron (story), Tim Doiron
    Stars: Katharine Isabelle, Christopher Lloyd, Kyle Schmi







    Video
    ID : 1
    Format : AVC
    Format/Info : Advanced Video Codec
    Format profile : Main@L3.1
    Format settings, CABAC : No
    Format settings, ReFrames : 2 frames
    Codec ID : V_MPEG4/ISO/AVC
    Duration : 1h 28mn
    Bit rate : 4 086 Kbps
    Width : 1 280 pixels
    Height : 528 pixels
    Display aspect ratio : 2.40:1
    Frame rate mode : Constant
    Frame rate : 23.976 fps
    Color space : YUV
    Chroma subsampling : 4:2:0
    Bit depth : 8 bits
    Scan type : Progressive
    Bits/(Pixel*Frame) : 0.252
    Stream size : 2.53 GiB (90%)
    Language : English
    Default : Yes
    Forced : No
    Color primaries : BT.709
    Transfer characteristics : BT.709
    Matrix coefficients : BT.709

    Audio
    ID : 2
    Format : AC-3
    Format/Info : Audio Coding 3
    Mode extension : CM (complete main)
    Format settings, Endianness : Big
    Codec ID : A_AC3
    Duration : 1h 28mn
    Bit rate mode : Constant
    Bit rate : 384 Kbps
    Channel(s) : 6 channels
    Channel positions : Front: L C R, Side: L R, LFE
    Sampling rate : 48.0 KHz
    Bit depth : 16 bits
    Compression mode : Lossy
    Stream size : 243 MiB (8%)
    Language : English
    Default : Yes
    Forced : No



    Nazwa uploadu: 88.2015.720p.WEB-DL.DD5.1.H.264-PLAYNOW.part1
    Nazwa pliku: 88.2015.720p.WEB-DL.DD5.1.H.264-PLAYNOW.part1.rar
    Rozmiar uploadu: 2048 MB
    Ilość segmentów: 228
    Rozmiar segmentu: 9 MB
    Liczba mirrorów: 8

    Nazwa uploadu: 88.2015.720p.WEB-DL.DD5.1.H.264-PLAYNOW.part2
    Nazwa pliku: 88.2015.720p.WEB-DL.DD5.1.H.264-PLAYNOW.part2.rar
    Rozmiar uploadu: 1135 MB
    Ilość segmentów: 127
    Rozmiar segmentu: 9 MB
    Liczba mirrorów: 8
    Hasło: www.ufs.pt

    Masz problem z programem M4UDownloader? Zajrzyj do działu Poradniki & FAQ tego programu.


    Zawartość Ukryta. Kliknij "PODZIĘKUJ" żeby zobaczyć hashcode. (ikonka browara)

    Upload zawiera 10% danych naprawczych!
    Jak korzystać z danych naprawczych? Tutaj znajdziesz poradnik!
    Upload wykonany w M4UD 2.1.0
    Ostatnio edytowane przez ZielonY ; 06-01-2015 o 15:47
    Jeśli coś nie działa, czegoś potrzebujesz pisz na PW, nie mam czasu żeby sprawdzać wszystkich komentarzy.
    Pakuje uploady WinRar'em 5.1+, używaj do wypakowania takiego lub nowszego.

  2. Liczba osób które doceniły autora: 55


  3.    Sponsored Links




  4. #2
    Retired Awatar ZielonY
     Info : 
    Dołączył
    Dec 2013
    Skąd
    ja to znam?
    Posty
    7,742
     Podziękowania : 
    Podziękował: 3,103
    Doceniono: 13,577 razy w 267 postach
     UFS Stats Uploady : 
    Filmy: 144
    Gry: 9
    Programy: 1
    TV's: 19
    Muzyka: 13
    Porno: 2
    Małe uploady: 1
     UFS Stats Konta : 
    Gmail: 28
    Inne: 167
     Total Upload : 
    P2M UP: 1030.38 GB
     Total CA : 
    Total CA: 6695 AC
    ZielonY jest nieaktywny

    Domyślnie

    niezatwierdzone
    Ostatnio edytowane przez ZielonY ; 06-01-2015 o 15:57

    Member > Full Member > UFS Trial > UFS Uploader > Super Uploader > UFS Elite > Super Vip > UFS Elite >Moderator > Super Moderator > Retired

Informacje o wątku

Użytkownicy przeglądający ten wątek

Aktualnie 1 użytkownik(ów) przegląda ten wątek. (0 zarejestrowany(ch) oraz 1 gości)

Podobne wątki

  1. 0.6GB Roald Dahl's Esio Trot [2015][BDRip][x264][AC3][ENG]
    Przez RAZOM w dziale HQ (High Quality - Wysoka Jakość)
    Odpowiedzi: 1
    Ostatni post / autor: 05-01-2015, 19:29
  2. Aktualizacja 3.01.2015
    Przez Azuel w dziale * Archiwum Aktualizacji *
    Odpowiedzi: 0
    Ostatni post / autor: 03-01-2015, 01:45

Uprawnienia umieszczania postów

  • Nie możesz zakładać nowych tematów
  • Nie możesz pisać wiadomości
  • Nie możesz dodawać załączników
  • Nie możesz edytować swoich postów
  •