Aktualizacje seriali
 



Ogłoszenia
UFS - dotacje
Dotacje SMS
Jak korzystać z forumowej szukajki



Pokaż wyniki od 1 do 2 z 2

Wątek: Anakonda [1997][BDRip][720p][x264][AC3][LEK-PL]

  1. #1
    Full Member Awatar CzaHa
     Info : 
    Dołączył
    Nov 2007
    Skąd
    Ostrowiec Świetokrzyski
    Posty
    279
     Podziękowania : 
    Podziękował: 167
    Doceniono: 2,827 razy w 81 postach
     UFS Stats Uploady : 
    Filmy: 79
    TV's: 2
     Total Upload : 
    P2M UP: 156.9 GB
    CzaHa jest nieaktywny

    m4ud Anakonda [1997][BDRip][720p][x264][AC3][LEK-PL]

    Anakonda
    Anaconda



    Gatunek: Horror, Przygodowy,
    Produkcja: Brazylia
    Premiera: 11 lipca 1997 (Polska) 11 kwietnia 1997 (świat)
    Reżyseria: Luis Llosa
    Scenariusz: Jack Epps Jr., Hans Bauer, Jim Cash,
    Muzyka: Randy Edelman,
    Zdjęcia: Bill Butler,
    Dystrybucja: Syrena EG,
    Ocena: 5,0/10



    Ekipa filmowa wybiera się na wyprawę Amazonką, aby sfilmować zwyczaje pewnego tajemniczego indiańskiego plemienia. Po drodze spotykają mężczyznę - Paula (Jon Voight), którego statek ugrzązł na mieliźnie. Obiecuje on im doprowadzenie do wioski Indian. Niestety powodzenie wyprawy szybko staje pod znakiem zapytania. Jeden z uczestników zostaje użądlony przez osę wodną i trzeba go jak najprędzej odwieźć do cywilizowanego szpitala. Na swojej drodze napotykają tamę. Przy jej wysadzaniu beczki z paliwem spadają z pokładu.* Zatrzymują się przy opuszczonym wraku z nadzieją znalezienia paliwa do dalszej drogi. Nie znajdują go, a kapitan statku ginie niepostrzeżenie. Paul przynosi skrzynię ze skórami wielkich węży i sprzętem do polowania na anakondy. Okazuje się on łowcą tych zwierząt, terroryzuje załogę i rozpoczyna polowanie. Od tej pory gigantyczny wąż będzie towarzyszył bohaterom przez cały czas. Członkowie ekipy giną po kolei, ale niektórym udaje się przetrwać w dżungli. Będą musieli stoczyć walkę nie tylko z człowiekiem, ale i anakondą....



    Jennifer Lopez - Terri Flores
    Ice Cube - Danny Rich
    Jon Voight - Paul Sarone
    Eric Stoltz - Dr Steven Cale
    Jonathan Hyde - Warren Westridge
    Owen Wilson - Gary Dixon
    Kari Wuhrer - Denise Kalber
    Vincent Castellanos - Mateo








    Format : Matroska
    Format version : Version 2
    File size : 2.47 GiB
    Duration : 1h 29mn
    Overall bit rate : 3 951 Kbps
    Writing application : HandBrake rev20121007
    Writing library : libmkv 0.6.5.1

    Video
    ID : 1
    Format : AVC
    Format/Info : Advanced Video Codec
    Format profile : High@L3.1
    Format settings, CABAC : Yes
    Format settings, ReFrames : 3 frames
    Codec ID : V_MPEG4/ISO/AVC
    Duration : 1h 29mn
    Bit rate : 3 500 Kbps
    Width : 1 280 pixels
    Height : 528 pixels
    Display aspect ratio : 2.40:1
    Frame rate mode : Constant
    Frame rate : 23.976 fps
    Color space : YUV
    Chroma subsampling : 4:2:0
    Bit depth : 8 bits
    Scan type : Progressive
    Bits/(Pixel*Frame) : 0.216
    Stream size : 2.14 GiB (87%)
    Writing library : x264 core 132
    Language : English
    Default : Yes
    Forced : No
    Color primaries : BT.709
    Transfer characteristics : BT.709
    Matrix coefficients : BT.709

    Audio
    ID : 2
    Format : AC-3
    Format/Info : Audio Coding 3
    Mode extension : CM (complete main)
    Format settings, Endianness : Big
    Codec ID : A_AC3
    Duration : 1h 29mn
    Bit rate mode : Constant
    Bit rate : 448 Kbps
    Channel(s) : 6 channels
    Channel positions : Front: L C R, Side: L R, LFE
    Sampling rate : 48.0 KHz
    Bit depth : 16 bits
    Compression mode : Lossy
    Stream size : 286 MiB (11%)
    Language : Polish
    Default : Yes
    Forced : No





    Nazwa uploadu: Anaconda.1997.PL.720p.BDRip.AC3.x264
    Nazwa pliku: Anaconda.1997.PL.720p.BDRip.AC3.x264.mkv
    Rozmiar uploadu: 2524 MB
    Rozmiar segmentu: 20 MB
    Ilość segmentów: 127
    Liczba mirrorów: 10
    Hasło: www.ufs.pt
    Novy rządzi

    Masz problem z programem M4UDownloader? Zajrzyj do działu Poradniki & FAQ tego programu.






    Przepraszamy, ale nie możesz zobaczyć tego tematu. Musisz sie Zarejestrować
    albo Zalogować




    Novy Rządzi
    Zapostowane za pomocą Novy Rządzi Releaser

  2. Liczba osób które doceniły autora: 1


  3.    Sponsored Links




  4. #2
    VIPcio Awatar Zarazek
     Info : 
    Dołączył
    Jan 2008
    Posty
    1,696
     Podziękowania : 
    Podziękował: 728
    Doceniono: 2,058 razy w 77 postach
     UFS Stats Uploady : 
    Filmy: 78
    Gry: 17
    Programy: 2
    TV's: 54
    Muzyka: 6
    Porno: 2
     Total Upload : 
    P2M UP: 434.55 GB
    Zarazek jest nieaktywny

    Domyślnie


Informacje o wątku

Użytkownicy przeglądający ten wątek

Aktualnie 1 użytkownik(ów) przegląda ten wątek. (0 zarejestrowany(ch) oraz 1 gości)

Podobne wątki

  1. 3GB Obcy: Przebudzenie [1997][BDRip][720p][AC3][LEK-PL]
    Przez Stachu w dziale Filmy High Definition [Dział od rangi Full Member]
    Odpowiedzi: 1
    Ostatni post / autor: 17-09-2014, 21:07

Uprawnienia umieszczania postów

  • Nie możesz zakładać nowych tematów
  • Nie możesz pisać wiadomości
  • Nie możesz dodawać załączników
  • Nie możesz edytować swoich postów
  •