Aktualizacje seriali
 



Ogłoszenia
UFS - dotacje
Dotacje SMS
Jak korzystać z forumowej szukajki



Pokaż wyniki od 1 do 2 z 2

Wątek: Into the Storm [2014][HDRip][720p][ENG]

  1. #1
    .::dEpeChe mOde::. Awatar DM
     Info : 
    Dołączył
    Mar 2008
    Skąd
    Klucze
    Posty
    2,583
     Podziękowania : 
    Podziękował: 666
    Doceniono: 40,362 razy w 269 postach
     UFS Stats Uploady : 
    Filmy: 347
    Gry: 16
    Programy: 1
    TV's: 43
    Muzyka: 3
    Porno: 7
    Inne: 9
     UFS Stats Konta : 
    Gmail: 36
    Inne: 79
     Total Upload : 
    P2M UP: 1723.92 GB
     Total CA : 
    Total CA: 1275 AC
    DM jest nieaktywny

    m4ud Into the Storm [2014][HDRip][720p][ENG]

    Epicentrum
    Into the Storm



    Gatunek: Thriller, Akcja
    Produkcja: USA
    Data Premiery: 8 sierpnia 2014 (Polska) 28 lipca 2014 (świat)
    Reżyseria: Steven Quale
    Scenariusz: John Swetnam
    Zdjęcia: Brian Pearson
    Muzyka: Brian Tyler
    Dystrybucja: Warner Bros. Entertainment Polska Sp. z o. o.


    W ciągu jednego dnia Silverton zostaje spustoszone przez niespotykaną do tej pory serię tornad. Całe miasteczko pozostaje na łasce i niełasce nieobliczalnych i śmiercionośnych cyklonów, a łowcy tornad przewidują, że najgorsze dopiero przed nimi. Większość mieszkańców szuka schronienia, lecz niektórzy ruszają w kierunku oka cyklonu. Chcą sprawdzić, jak daleko może posunąć się łowca burz, by zrobić zdjęcie swojego życia. Film "Epicentrum" widziany oczyma zawodowych łowców burz, żądnych wrażeń amatorów i odważnych mieszkańców miasta pozwala widzom znaleźć się w samym centrum wydarzeń i przekonać się o niszczycielskiej sile przyrody, utrwalonej w obiektywie ich aparatów. ... więcej


    Richard Armitage - Gary
    Sarah Wayne Callies - Allison
    Matt Walsh - Pete
    Max Deacon - Donnie








    Video
    ID : 0
    Format : MPEG-4 Visual
    Format profile : Advanced Simple@L5
    Format settings, BVOP : 2
    Format settings, QPel : No
    Format settings, GMC : No warppoints
    Format settings, Matrix : Default (H.263)
    Muxing mode : Packed bitstream
    Codec ID : XVID
    Codec ID/Hint : XviD
    Duration : 1h 29mn
    Bit rate : 3 454 Kbps
    Width : 1 280 pixels
    Height : 720 pixels
    Display aspect ratio : 16:9
    Frame rate : 23.976 fps
    Color space : YUV
    Chroma subsampling : 4:2:0
    Bit depth : 8 bits
    Scan type : Progressive
    Compression mode : Lossy
    Bits/(Pixel*Frame) : 0.156
    Stream size : 2.15 GiB (88%)
    Writing library : XviD 1.2.1 (UTC 2008-12-04)



    Audio
    ID : 1
    Format : AC-3
    Format/Info : Audio Coding 3
    Mode extension : CM (complete main)
    Format settings, Endianness : Big
    Codec ID : 2000
    Duration : 1h 29mn
    Bit rate mode : Constant
    Bit rate : 448 Kbps
    Channel(s) : 2 channels
    Channel positions : Front: L R
    Sampling rate : 48.0 KHz
    Bit depth : 16 bits
    Compression mode : Lossy
    Stream size : 286 MiB (11%)
    Alignment : Split accross interleaves
    Interleave, duration : 42 ms (1.00 video frame)
    Interleave, preload duration : 500 ms


    Nazwa uploadu: Into The Storm 2014 720p HDRiP XViD Westdenco
    Nazwa pliku: Into The Storm 2014 720p HDRiP XViD Westdenco.avi
    Rozmiar uploadu: 2497 MB
    Rozmiar segmentu: 10 MB
    Ilość segmentów: 250
    Liczba mirrorów: 10
    Uploader: tusty
    Upload dla: ufs
    Hasło: www.ufs.pt

    Masz problem z programem M4UDownloader? Zajrzyj do działu Poradniki & FAQ tego programu.


    Zawartość Ukryta. Kliknij "PODZIĘKUJ" żeby zobaczyć hashcode. (ikonka browara)







    Kliknij w dziękuje a zobaczysz HC

    <------------------


  2. Liczba osób które doceniły autora: 148


  3.    Sponsored Links




  4. #2
    Hodie mihi cras tibi Awatar Gwyn
     Info : 
    Dołączył
    May 2011
    Skąd
    Turek/Poznań
    Posty
    5,744
     Podziękowania : 
    Podziękował: 1,796
    Doceniono: 20,324 razy w 373 postach
     UFS Stats Uploady : 
    Filmy: 229
    Gry: 194
    TV's: 44
    Porno: 4
     UFS Stats Konta : 
    Gmail: 133
    Inne: 289
     Total Upload : 
    P2M UP: 4080.65 GB
     Total CA : 
    Total CA: 10605 AC
    Gwyn jest nieaktywny

    Domyślnie

    Ostatnio edytowane przez Gwyn ; 28-10-2014 o 14:24



    Wstawka się spodobała? Nie zapomnij podziękować!

Informacje o wątku

Użytkownicy przeglądający ten wątek

Aktualnie 1 użytkownik(ów) przegląda ten wątek. (0 zarejestrowany(ch) oraz 1 gości)

Uprawnienia umieszczania postów

  • Nie możesz zakładać nowych tematów
  • Nie możesz pisać wiadomości
  • Nie możesz dodawać załączników
  • Nie możesz edytować swoich postów
  •