Aktualizacje seriali
 



Ogłoszenia
UFS - dotacje
Dotacje SMS
Jak korzystać z forumowej szukajki



Pokaż wyniki od 1 do 2 z 2

Wątek: Step Up All In [2014][WEBRip][x264][AC3][ENG]

  1. #1
    .::dEpeChe mOde::. Awatar DM
     Info : 
    Dołączył
    Mar 2008
    Skąd
    Klucze
    Posty
    2,584
     Podziękowania : 
    Podziękował: 667
    Doceniono: 40,376 razy w 269 postach
     UFS Stats Uploady : 
    Filmy: 347
    Gry: 16
    Programy: 1
    TV's: 43
    Muzyka: 3
    Porno: 7
    Inne: 9
     UFS Stats Konta : 
    Gmail: 36
    Inne: 79
     Total Upload : 
    P2M UP: 1723.92 GB
     Total CA : 
    Total CA: 1275 AC
    DM jest nieaktywny

    m4ud Step Up All In [2014][WEBRip][x264][AC3][ENG]

    Step Up: All In
    Step Up All In



    Gatunek: Melodramat, Muzyczny
    Produkcja: USA
    Data Premiery: 18 lipca 2014 (Polska) 9 lipca 2014 (świat)
    Reżyseria: Trish Sie
    Scenariusz: John Swetnam
    Zdjęcia: Brian Pearson
    Muzyka: Jeff Cardoni
    Dystrybucja: Monolith Films


    Do rywalizacji we wnętrzach luksusowego hotelu Valhalla w Las Vegas przystąpią uwielbiani przez widzów uczestnicy wcześniejszych tanecznych turniejów: Sean (Ryan Guzman), Andie (Briana Evigan), Moose (Adam Sevani), Jenny Kido (Mari Koda), Eddy (Misha Gabriel), Camille (Alyson Stoner), Jason (Stephen 'tWitch' Boss), Hair (Christopher Scott), Monster (Luis Rosado), Vladd (Chadd Smith) i bliźniaki Santiago (Martin Lombard i Facundo Lombard). Wszyscy oni sprawią, że parkiety Miasta Grzechu rozgrzeją się do czerwoności. ... więcej


    Ryan Guzman - Sean
    Briana Evigan - Andie
    Stephen Boss - Jason
    Misha Gabriel Hamilton - Eddy








    Video

    ID : 1
    Format : AVC
    Format/Info : Advanced Video Codec
    Format profile : High@L4.1
    Format settings, CABAC : Yes
    Format settings, ReFrames : 3 frames
    Codec ID : V_MPEG4/ISO/AVC
    Duration : 1h 51mn
    Bit rate mode : Variable
    Bit rate : 1 889 Kbps
    Maximum bit rate : 40.0 Mbps
    Width : 720 pixels
    Height : 400 pixels
    Display aspect ratio : 16:9
    Frame rate : 23.976 fps
    Color space : YUV
    Chroma subsampling : 4:2:0
    Bit depth : 8 bits
    Scan type : Progressive
    Bits/(Pixel*Frame) : 0.274
    Stream size : 1.48 GiB (81%)
    Writing library : x264 core 142 r2431 ac76440
    Default : Yes
    Forced : No

    Audio

    ID : 2
    Format : AC-3
    Format/Info : Audio Coding 3
    Mode extension : CM (complete main)
    Codec ID : A_AC3
    Duration : 1h 51mn
    Bit rate mode : Constant
    Bit rate : 384 Kbps
    Channel(s) : 6 channels
    Channel positions : Front: L C R, Side: L R, LFE
    Sampling rate : 48.0 KHz
    Bit depth : 16 bits
    Compression mode : Lossy
    Stream size : 307 MiB (17%)
    Language : English
    Default : Yes
    Forced : No


    Nazwa uploadu: Step.Up.All.In.2014.WEBrip.x264.Ac3-MiLLENiUM
    Nazwa pliku: Step.Up.All.In.2014.WEBrip.x264.Ac3-MiLLENiUM.mkv
    Rozmiar uploadu: 1855 MB
    Rozmiar segmentu: 10 MB
    Ilość segmentów: 186
    Liczba mirrorów: 10
    Uploader: tusty
    Upload dla: ufs
    Hasło: www.ufs.pt

    Masz problem z programem M4UDownloader? Zajrzyj do działu Poradniki & FAQ tego programu.


    Zawartość Ukryta. Kliknij "PODZIĘKUJ" żeby zobaczyć hashcode. (ikonka browara)

    Ostatnio edytowane przez DM ; 22-10-2014 o 15:36

  2. Liczba osób które doceniły autora: 111


  3.    Sponsored Links




  4. #2
    Retired
     Info : 
    Dołączył
    Nov 2008
    Posty
    4,218
     Podziękowania : 
    Podziękował: 377
    Doceniono: 981 razy w 85 postach
     UFS Stats Uploady : 
    Filmy: 77.5
    Gry: 9
    Programy: 4
    TV's: 142
     Total Upload : 
    P2M UP: 812.8 GB
    Diller81 jest nieaktywny

    Domyślnie

    Ostatnio edytowane przez Diller81 ; 22-10-2014 o 13:37

Informacje o wątku

Użytkownicy przeglądający ten wątek

Aktualnie 1 użytkownik(ów) przegląda ten wątek. (0 zarejestrowany(ch) oraz 1 gości)

Podobne wątki

  1. 1.4GB In Your Eyes [2014][WEBRip][x264][AC3][ENG]
    Przez Only one w dziale HQ (High Quality - Wysoka Jakość)
    Odpowiedzi: 1
    Ostatni post / autor: 22-04-2014, 11:10

Uprawnienia umieszczania postów

  • Nie możesz zakładać nowych tematów
  • Nie możesz pisać wiadomości
  • Nie możesz dodawać załączników
  • Nie możesz edytować swoich postów
  •