Aktualizacje seriali
 



Ogłoszenia
UFS - dotacje
Dotacje SMS
Jak korzystać z forumowej szukajki



Pokaż wyniki od 1 do 2 z 2

Wątek: Homeland [2014][S04E04][HDTV][ENG]

  1. #1
    Retired Awatar Gotto
     Info : 
    Dołączył
    Jun 2008
    Posty
    983
     Podziękowania : 
    Podziękował: 64
    Doceniono: 698 razy w 43 postach
     UFS Stats Uploady : 
    Filmy: 171
    Gry: 45
    Programy: 4
    TV's: 32
    Porno: 10
    Inne: 1
     UFS Stats Konta : 
    Gmail: 20
    Inne: 155
     Total Upload : 
    P2M UP: 526.4 GB
     Total CA : 
    Total CA: 9996 AC
    Gotto jest nieaktywny

    m4ud Homeland [2014][S04E04][HDTV][ENG]

    Homeland



    Produkcja: USA
    Data Premiery: 2011-10-02 (świat), 2013-04-24 (dvd)
    Reżyseria: Michael Cuesta, Lesli Linka Glatter
    Scenariusz: Alex Gansa (również) (realizacja), Howard Gordon (również) (realizacja)
    Czas trwania: odc.: 60 minut
    Dystrybucja:
    Gatunek: Dramat | Thriller
    Ocena: 7,3 / 10



    Nick Brody, jeniec wojenny, zostaje odbity po 8 latach niewoli. Wraca do Stanów jako bohater, gdzie czeka na niego mająca kochanka żona oraz dwójka dzieci, które ledwie go pamiętają. Jednak pracownica CIA Carrie Mathison uważa, że mógł on przejść na stronę terrorystów i zaczyna prowadzić śledztwo na własną rękę. (Beznickowy)



    Carrie Mathison (36 odcinków, 2011 - 2013) - Claire Danes
    Saul Berenson (35 odcinków, 2011 - 2013) - Mandy Patinkin
    Nicholas Brody (30 odcinków, 2011 - 2013) - Damian Lewis
    Jessica Brody (29 odcinków, 2011 - 2013) - Morena Baccarin
    Dana Brody (28 odcinków, 2011 - 2013) - Morgan Saylor
    David Estes (24 odcinki, 2011 - 2012) - David Harewood
    Chris Brody (24 odcinki, 2011 - 2013) - Jackson Pace
    Peter Quinn (19 odcinków, 2012 - 2013) - Rupert Friend









    Format : Matroska
    Format version : Version 4 / Version 2
    File size : 1.00 GiB
    Duration : 51mn 45s
    Overall bit rate : 2 779 Kbps
    Encoded date : UTC 2014-10-20 02:26:43
    Writing application : mkvmerge v6.7.0 ('Back to the Ground') 64bit built on Jan 8 2014 14:31:51
    Writing library : libebml v1.3.0 + libmatroska v1.4.1

    Video
    ID : 1
    Format : AVC
    Format/Info : Advanced Video Codec
    Format profile : High@L4.1
    Format settings, CABAC : Yes
    Format settings, ReFrames : 5 frames
    Codec ID : V_MPEG4/ISO/AVC
    Duration : 51mn 45s
    Bit rate : 2 339 Kbps
    Width : 1 280 pixels
    Height : 720 pixels
    Display aspect ratio : 16:9
    Frame rate mode : Constant
    Frame rate : 23.976 fps
    Color space : YUV
    Chroma subsampling : 4:2:0
    Bit depth : 8 bits
    Scan type : Progressive
    Bits/(Pixel*Frame) : 0.106
    Stream size : 866 MiB (84%)
    Writing library : x264 core 142 r2479 dd79a61
    Encoding settings : cabac=1 / ref=5 / deblock=1:0:0 / analyse=0x3:0x113 / me=umh / subme=8 / psy=1 / psy_rd=1.00:0.00 / mixed_ref=1 / me_range=16 / chroma_me=1 / trellis=1 / 8x8dct=1 / cqm=0 / deadzone=21,11 / fast_pskip=1 / chroma_qp_offset=-2 / threads=18 / lookahead_threads=4 / sliced_threads=0 / nr=0 / decimate=1 / interlaced=0 / bluray_compat=0 / constrained_intra=0 / bframes=5 / b_pyramid=2 / b_adapt=2 / b_bias=0 / direct=3 / weightb=1 / open_gop=0 / weightp=2 / keyint=250 / keyint_min=23 / scenecut=40 / intra_refresh=0 / rc_lookahead=50 / rc=crf / mbtree=1 / crf=18.0 / qcomp=0.60 / qpmin=0 / qpmax=69 / qpstep=4 / ip_ratio=1.40 / aq=1:1.00
    Default : No
    Forced : No

    Audio
    ID : 2
    Format : AC-3
    Format/Info : Audio Coding 3
    Mode extension : CM (complete main)
    Format settings, Endianness : Big
    Codec ID : A_AC3
    Duration : 51mn 45s
    Bit rate mode : Constant
    Bit rate : 384 Kbps
    Channel(s) : 6 channels
    Channel positions : Front: L C R, Side: L R, LFE
    Sampling rate : 48.0 KHz
    Bit depth : 16 bits
    Compression mode : Lossy
    Delay relative to video : -83ms
    Stream size : 142 MiB (14%)
    Default : Yes
    Forced : No

    Nazwa uploadu: Homeland.S04E04.720p.HDTV.X264-DIMENSION
    Nazwa pliku: Homeland.S04E04.720p.HDTV.X264-DIMENSION.mkv
    Rozmiar uploadu: 1028 MB
    Rozmiar segmentu: 10 MB
    Ilość segmentów: 103
    Liczba mirrorów: 10
    Hasło: www.ufs.pt

    Masz problem z programem M4UDownloader? Zajrzyj do działu Poradniki & FAQ tego programu.






    Przepraszamy, ale nie możesz zobaczyć tego tematu. Musisz sie Zarejestrować
    albo Zalogować

    Upload wykonany w M4UD 2.0.0

  2. Liczba osób które doceniły autora: 2


  3.    Sponsored Links




  4. #2
    Awatar JRK
     Info : 
    Dołączył
    Nov 2007
    Posty
    7,425
     Podziękowania : 
    Podziękował: 2,541
    Doceniono: 16,710 razy w 517 postach
     UFS Stats Uploady : 
    Filmy: 438
    Gry: 51
    Programy: 41
    TV's: 6
    Muzyka: 40
    Inne: 15
    Małe uploady: 1
     UFS Stats Konta : 
    Gmail: 79
    Inne: 177
     Total Upload : 
    P2M UP: 2723.7 GB
     Total CA : 
    Total CA: 8275 AC
    JRK jest nieaktywny

    Domyślnie

    niezatwierdzone
    Ostatnio edytowane przez JRK ; 21-10-2014 o 17:12

Informacje o wątku

Użytkownicy przeglądający ten wątek

Aktualnie 1 użytkownik(ów) przegląda ten wątek. (0 zarejestrowany(ch) oraz 1 gości)

Podobne wątki

  1. 1.5 GB Homeland [2014][S04E01][720p][WEB-DL][ENG]
    Przez Gotto w dziale Pojedyncze Odcinki
    Odpowiedzi: 2
    Ostatni post / autor: 17-10-2014, 11:40
  2. 0.35GB Person of Interest [2014][S04E04][HDTV][ENG]
    Przez kadeshar w dziale Pojedyncze Odcinki
    Odpowiedzi: 1
    Ostatni post / autor: 15-10-2014, 19:57
  3. 0.55GB Homeland [2014][S04E0102][WEB-DL][ENG]
    Przez Gotto w dziale Pojedyncze Odcinki
    Odpowiedzi: 1
    Ostatni post / autor: 06-10-2014, 21:01

Uprawnienia umieszczania postów

  • Nie możesz zakładać nowych tematów
  • Nie możesz pisać wiadomości
  • Nie możesz dodawać załączników
  • Nie możesz edytować swoich postów
  •