Aktualizacje seriali
 



Ogłoszenia
UFS - dotacje
Dotacje SMS
Jak korzystać z forumowej szukajki



Pokaż wyniki od 1 do 2 z 2

Wątek: Deliver Us from Evil [2014][BRRip][720p][AC3][ENG]

  1. #1
    .::dEpeChe mOde::. Awatar DM
     Info : 
    Dołączył
    Mar 2008
    Skąd
    Klucze
    Posty
    2,583
     Podziękowania : 
    Podziękował: 666
    Doceniono: 40,364 razy w 269 postach
     UFS Stats Uploady : 
    Filmy: 347
    Gry: 16
    Programy: 1
    TV's: 43
    Muzyka: 3
    Porno: 7
    Inne: 9
     UFS Stats Konta : 
    Gmail: 36
    Inne: 79
     Total Upload : 
    P2M UP: 1723.92 GB
     Total CA : 
    Total CA: 1275 AC
    DM jest nieaktywny

    m4ud Deliver Us from Evil [2014][BRRip][720p][AC3][ENG]

    Zbaw nas ode złego
    Deliver Us from Evil



    Gatunek: Horror, Kryminał
    Produkcja: USA
    Data Premiery: 4 lipca 2014 (Polska) 2 lipca 2014 (świat)
    Reżyseria: Scott Derrickson
    Scenariusz: Paul Harris Boardman, Scott Derrickson
    Zdjęcia: Scott Kevan
    Muzyka: Christopher Young
    Dystrybucja: United International Pictures Sp z o.o.


    Oficer nowojorskiej policji Ralph Sarchie (Eric Bana) prowadzi dochodzenie w sprawie serii tajemniczych morderstw. Pomaga mu niekonwencjonalny ksiądz (Edgar Ramirez), który jest przekonany, że w sprawy są zamieszane siły nieczyste.


    Eric Bana - Sarchie
    Édgar Ramírez - Mendoza
    Olivia Munn - Jen
    Chris Coy - Jimmy






    Video
    ID : 0
    Format : MPEG-4 Visual
    Format profile : Advanced Simple@L5
    Format settings, BVOP : 2
    Format settings, QPel : No
    Format settings, GMC : No warppoints
    Format settings, Matrix : Default (H.263)
    Muxing mode : Packed bitstream
    Codec ID : XVID
    Codec ID/Hint : XviD
    Duration : 1h 58mn
    Bit rate : 3 493 Kbps
    Width : 1 280 pixels
    Height : 544 pixels
    Display aspect ratio : 2.35:1
    Frame rate : 23.976 fps
    Color space : YUV
    Chroma subsampling : 4:2:0
    Bit depth : 8 bits
    Scan type : Progressive
    Compression mode : Lossy
    Bits/(Pixel*Frame) : 0.209
    Stream size : 2.89 GiB (88%)
    Writing library : XviD 65

    Audio
    ID : 1
    Format : AC-3
    Format/Info : Audio Coding 3
    Mode extension : CM (complete main)
    Format settings, Endianness : Big
    Codec ID : 2000
    Duration : 1h 58mn
    Bit rate mode : Constant
    Bit rate : 448 Kbps
    Channel(s) : 6 channels
    Channel positions : Front: L C R, Side: L R, LFE
    Sampling rate : 48.0 KHz
    Bit depth : 16 bits
    Compression mode : Lossy
    Stream size : 380 MiB (11%)


    Nazwa uploadu: Deliver us From Evil 2014 720p BRRiP XViD AC3 ACAB
    Nazwa pliku: Deliver us From Evil 2014 720p BRRiP XViD AC3 ACAB.avi
    Rozmiar uploadu: 3347 MB
    Rozmiar segmentu: 10 MB
    Ilość segmentów: 335
    Liczba mirrorów: 10
    Uploader: tusty
    Upload dla: ufs
    Hasło: www.ufs.pt

    Masz problem z programem M4UDownloader? Zajrzyj do działu Poradniki & FAQ tego programu.


    Zawartość Ukryta. Kliknij "PODZIĘKUJ" żeby zobaczyć hashcode. (ikonka browara)

  2. Liczba osób które doceniły autora: 198


  3.    Sponsored Links




  4. #2
    Hodie mihi cras tibi Awatar Gwyn
     Info : 
    Dołączył
    May 2011
    Skąd
    Turek/Poznań
    Posty
    5,744
     Podziękowania : 
    Podziękował: 1,796
    Doceniono: 20,324 razy w 373 postach
     UFS Stats Uploady : 
    Filmy: 229
    Gry: 194
    TV's: 44
    Porno: 4
     UFS Stats Konta : 
    Gmail: 133
    Inne: 289
     Total Upload : 
    P2M UP: 4080.65 GB
     Total CA : 
    Total CA: 10605 AC
    Gwyn jest nieaktywny

    Domyślnie

    Ostatnio edytowane przez Gwyn ; 15-10-2014 o 13:50



    Wstawka się spodobała? Nie zapomnij podziękować!

Informacje o wątku

Użytkownicy przeglądający ten wątek

Aktualnie 1 użytkownik(ów) przegląda ten wątek. (0 zarejestrowany(ch) oraz 1 gości)

Podobne wątki

  1. 2.5GB See No Evil 2 [2014][BDRip][720p][AC3][ENG][Napisy PL]
    Przez JozekPralka w dziale Filmy High Definition [Dział od rangi Full Member]
    Odpowiedzi: 1
    Ostatni post / autor: 13-10-2014, 17:58
  2. 9.5GB Deliver Us from Evil [2014][Blu-Ray][1080p][x264][DTS][ENG]
    Przez BattleMage w dziale Filmy High Definition [Dział od rangi Full Member]
    Odpowiedzi: 1
    Ostatni post / autor: 10-10-2014, 16:04

Uprawnienia umieszczania postów

  • Nie możesz zakładać nowych tematów
  • Nie możesz pisać wiadomości
  • Nie możesz dodawać załączników
  • Nie możesz edytować swoich postów
  •