Aktualizacje seriali
 



Ogłoszenia
UFS - dotacje
Dotacje SMS
Jak korzystać z forumowej szukajki



Pokaż wyniki od 1 do 2 z 2

Wątek: Homeland [2014][S04E03][WEBRip][ENG]

  1. #1
    Retired Awatar Gotto
     Info : 
    Dołączył
    Jun 2008
    Posty
    983
     Podziękowania : 
    Podziękował: 64
    Doceniono: 698 razy w 43 postach
     UFS Stats Uploady : 
    Filmy: 171
    Gry: 45
    Programy: 4
    TV's: 32
    Porno: 10
    Inne: 1
     UFS Stats Konta : 
    Gmail: 20
    Inne: 155
     Total Upload : 
    P2M UP: 526.4 GB
     Total CA : 
    Total CA: 9996 AC
    Gotto jest nieaktywny

    m4ud Homeland [2014][S04E03][WEBRip][ENG]

    Homeland



    Produkcja: USA
    Data Premiery: 2011-10-02 (świat), 2013-04-24 (dvd)
    Reżyseria: Michael Cuesta, Lesli Linka Glatter
    Scenariusz: Alex Gansa (również) (realizacja), Howard Gordon (również) (realizacja)
    Czas trwania: odc.: 60 minut
    Dystrybucja:
    Gatunek: Dramat | Thriller
    Ocena: 7,3 / 10



    Nick Brody, jeniec wojenny, zostaje odbity po 8 latach niewoli. Wraca do Stanów jako bohater, gdzie czeka na niego mająca kochanka żona oraz dwójka dzieci, które ledwie go pamiętają. Jednak pracownica CIA Carrie Mathison uważa, że mógł on przejść na stronę terrorystów i zaczyna prowadzić śledztwo na własną rękę. (Beznickowy)



    Carrie Mathison (36 odcinków, 2011 - 2013) - Claire Danes
    Saul Berenson (35 odcinków, 2011 - 2013) - Mandy Patinkin
    Nicholas Brody (30 odcinków, 2011 - 2013) - Damian Lewis
    Jessica Brody (29 odcinków, 2011 - 2013) - Morena Baccarin
    Dana Brody (28 odcinków, 2011 - 2013) - Morgan Saylor
    David Estes (24 odcinki, 2011 - 2012) - David Harewood
    Chris Brody (24 odcinki, 2011 - 2013) - Jackson Pace
    Peter Quinn (19 odcinków, 2012 - 2013) - Rupert Friend









    Format : MPEG-4
    Format profile : Base Media
    Codec ID : isom
    File size : 302 MiB
    Duration : 49mn 1s
    Overall bit rate mode : Variable
    Overall bit rate : 861 Kbps
    Encoded date : UTC 2014-10-12 02:21:31
    Tagged date : UTC 2014-10-12 02:21:31
    Writing application : My MP4Box GUI 0.6.0.6 <http://my-mp4box-gui.zymichost.com>

    Video
    ID : 1
    Format : AVC
    Format/Info : Advanced Video Codec
    Format profile : High@L3.1
    Format settings, CABAC : Yes
    Format settings, ReFrames : 5 frames
    Codec ID : avc1
    Codec ID/Info : Advanced Video Coding
    Duration : 49mn 1s
    Bit rate : 750 Kbps
    Maximum bit rate : 3 246 Kbps
    Width : 720 pixels
    Height : 404 pixels
    Display aspect ratio : 16:9
    Frame rate mode : Constant
    Frame rate : 23.976 fps
    Color space : YUV
    Chroma subsampling : 4:2:0
    Bit depth : 8 bits
    Scan type : Progressive
    Bits/(Pixel*Frame) : 0.108
    Stream size : 263 MiB (87%)
    Title : final2.mp4
    Writing library : x264 core 142 r2479 dd79a61
    Encoding settings : cabac=1 / ref=5 / deblock=1:0:0 / analyse=0x3:0x113 / me=umh / subme=8 / psy=1 / psy_rd=1.00:0.00 / mixed_ref=1 / me_range=16 / chroma_me=1 / trellis=1 / 8x8dct=1 / cqm=0 / deadzone=21,11 / fast_pskip=1 / chroma_qp_offset=-2 / threads=18 / lookahead_threads=3 / sliced_threads=0 / nr=0 / decimate=1 / interlaced=0 / bluray_compat=0 / constrained_intra=0 / bframes=3 / b_pyramid=2 / b_adapt=2 / b_bias=0 / direct=3 / weightb=1 / open_gop=0 / weightp=2 / keyint=250 / keyint_min=23 / scenecut=40 / intra_refresh=0 / rc_lookahead=50 / rc=crf / mbtree=1 / crf=19.0 / qcomp=0.60 / qpmin=0 / qpmax=69 / qpstep=4 / ip_ratio=1.40 / aq=1:1.00
    Encoded date : UTC 2014-10-12 02:19:31
    Tagged date : UTC 2014-10-12 02:21:32
    Matrix coefficients : BT.709

    Audio
    ID : 2
    Format : AAC
    Format/Info : Advanced Audio Codec
    Format profile : LC
    Codec ID : 40
    Duration : 49mn 1s
    Bit rate mode : Variable
    Bit rate : 107 Kbps
    Maximum bit rate : 152 Kbps
    Channel(s) : 2 channels
    Channel positions : Front: L R
    Sampling rate : 44.1 KHz
    Compression mode : Lossy
    Stream size : 37.5 MiB (12%)
    Title : homeland403.wav.aac
    Encoded date : UTC 2014-10-12 02:21:32
    Tagged date : UTC 2014-10-12 02:21:32


    Nazwa uploadu: homeland.403.x264-kyr
    Nazwa pliku: homeland.403.x264-kyr.mp4
    Rozmiar uploadu: 301 MB
    Rozmiar segmentu: 10 MB
    Ilość segmentów: 31
    Liczba mirrorów: 5
    Hasło: www.ufs.pt

    Masz problem z programem M4UDownloader? Zajrzyj do działu Poradniki & FAQ tego programu.






    Przepraszamy, ale nie możesz zobaczyć tego tematu. Musisz sie Zarejestrować
    albo Zalogować

    Upload wykonany w M4UD 2.0.0
    Ostatnio edytowane przez kadeshar ; 14-10-2014 o 19:52

  2. Liczba osób które doceniły autora: 1


  3.    Sponsored Links




  4. #2
    Hodie mihi cras tibi Awatar Gwyn
     Info : 
    Dołączył
    May 2011
    Skąd
    Turek/Poznań
    Posty
    5,744
     Podziękowania : 
    Podziękował: 1,796
    Doceniono: 20,324 razy w 373 postach
     UFS Stats Uploady : 
    Filmy: 229
    Gry: 194
    TV's: 44
    Porno: 4
     UFS Stats Konta : 
    Gmail: 133
    Inne: 289
     Total Upload : 
    P2M UP: 4080.65 GB
     Total CA : 
    Total CA: 10605 AC
    Gwyn jest nieaktywny

    Domyślnie

    Ostatnio edytowane przez Gwyn ; 12-10-2014 o 23:24



    Wstawka się spodobała? Nie zapomnij podziękować!

Informacje o wątku

Użytkownicy przeglądający ten wątek

Aktualnie 1 użytkownik(ów) przegląda ten wątek. (0 zarejestrowany(ch) oraz 1 gości)

Podobne wątki

  1. 1.5 GB Homeland [2014][S04E01][720p][WEB-DL][ENG]
    Przez Gotto w dziale Pojedyncze Odcinki
    Odpowiedzi: 2
    Ostatni post / autor: 17-10-2014, 11:40
  2. 0.55GB Homeland [2014][S04E0102][WEB-DL][ENG]
    Przez Gotto w dziale Pojedyncze Odcinki
    Odpowiedzi: 1
    Ostatni post / autor: 06-10-2014, 21:01

Uprawnienia umieszczania postów

  • Nie możesz zakładać nowych tematów
  • Nie możesz pisać wiadomości
  • Nie możesz dodawać załączników
  • Nie możesz edytować swoich postów
  •