Aktualizacje seriali
 



Ogłoszenia
UFS - dotacje
Dotacje SMS
Jak korzystać z forumowej szukajki



Pokaż wyniki od 1 do 3 z 3

Wątek: Homeland [2014][S04E01][720p][WEB-DL][ENG]

  1. #1
    Retired Awatar Gotto
     Info : 
    Dołączył
    Jun 2008
    Posty
    983
     Podziękowania : 
    Podziękował: 64
    Doceniono: 698 razy w 43 postach
     UFS Stats Uploady : 
    Filmy: 171
    Gry: 45
    Programy: 4
    TV's: 32
    Porno: 10
    Inne: 1
     UFS Stats Konta : 
    Gmail: 20
    Inne: 155
     Total Upload : 
    P2M UP: 526.4 GB
     Total CA : 
    Total CA: 9996 AC
    Gotto jest nieaktywny

    m4ud Homeland [2014][S04E01][720p][WEB-DL][ENG]

    Homeland



    Produkcja: USA
    Data Premiery: 2011-10-02 (świat), 2013-04-24 (dvd)
    Reżyseria: Michael Cuesta, Lesli Linka Glatter
    Scenariusz: Alex Gansa (również) (realizacja), Howard Gordon (również) (realizacja)
    Czas trwania: odc.: 60 minut
    Dystrybucja:
    Gatunek: Dramat | Thriller
    Ocena: 7,3 / 10



    Nick Brody, jeniec wojenny, zostaje odbity po 8 latach niewoli. Wraca do Stanów jako bohater, gdzie czeka na niego mająca kochanka żona oraz dwójka dzieci, które ledwie go pamiętają. Jednak pracownica CIA Carrie Mathison uważa, że mógł on przejść na stronę terrorystów i zaczyna prowadzić śledztwo na własną rękę. (Beznickowy)



    Carrie Mathison (36 odcinków, 2011 - 2013) - Claire Danes
    Saul Berenson (35 odcinków, 2011 - 2013) - Mandy Patinkin
    Nicholas Brody (30 odcinków, 2011 - 2013) - Damian Lewis
    Jessica Brody (29 odcinków, 2011 - 2013) - Morena Baccarin
    Dana Brody (28 odcinków, 2011 - 2013) - Morgan Saylor
    David Estes (24 odcinki, 2011 - 2012) - David Harewood
    Chris Brody (24 odcinki, 2011 - 2013) - Jackson Pace
    Peter Quinn (19 odcinków, 2012 - 2013) - Rupert Friend









    Format : Matroska
    Format version : Version 4 / Version 2
    File size : 1.52 GiB
    Duration : 48mn 52s
    Overall bit rate : 4 467 Kbps
    Encoded date : UTC 2014-10-05 23:48:13
    Writing application : mkvmerge v7.2.0 ('On Every Street') 64bit built on Sep 13 2014 15:52:10
    Writing library : libebml v1.3.0 + libmatroska v1.4.1
    DURATION : 00:46:46.270000000
    NUMBER_OF_FRAMES : 687
    NUMBER_OF_BYTES : 20193
    _STATISTICS_WRITING_APP : mkvmerge v7.2.0 ('On Every Street') 64bit built on Sep 13 2014 15:52:10
    _STATISTICS_WRITING_DATE_UTC : 2014-10-05 23:48:13
    _STATISTICS_TAGS : BPS DURATION NUMBER_OF_FRAMES NUMBER_OF_BYTES

    Video
    ID : 1
    Format : AVC
    Format/Info : Advanced Video Codec
    Format profile : High@L3.1
    Format settings, CABAC : No
    Format settings, ReFrames : 2 frames
    Codec ID : V_MPEG4/ISO/AVC
    Duration : 48mn 52s
    Bit rate : 3 994 Kbps
    Width : 1 280 pixels
    Height : 720 pixels
    Display aspect ratio : 16:9
    Frame rate mode : Constant
    Frame rate : 23.976 fps
    Color space : YUV
    Chroma subsampling : 4:2:0
    Bit depth : 8 bits
    Scan type : Progressive
    Bits/(Pixel*Frame) : 0.181
    Stream size : 1.36 GiB (89%)
    Language : English
    Default : Yes
    Forced : No
    Color primaries : BT.709
    Transfer characteristics : BT.709
    Matrix coefficients : BT.709

    Audio
    ID : 2
    Format : AC-3
    Format/Info : Audio Coding 3
    Mode extension : CM (complete main)
    Format settings, Endianness : Big
    Codec ID : A_AC3
    Duration : 48mn 52s
    Bit rate mode : Constant
    Bit rate : 384 Kbps
    Channel(s) : 6 channels
    Channel positions : Front: L C R, Side: L R, LFE
    Sampling rate : 48.0 KHz
    Bit depth : 16 bits
    Compression mode : Lossy
    Stream size : 134 MiB (9%)
    Language : English
    Default : Yes
    Forced : No

    Text
    ID : 3
    Format : UTF-8
    Codec ID : S_TEXT/UTF8
    Codec ID/Info : UTF-8 Plain Text
    Title : CC
    Language : English
    Default : No
    Forced : No




    Nazwa pliku: Homeland.S04E01.Drone.Queen.720p.WEB-DL.DD5.1.H.264-BS.mkv
    Rozmiar uploadu: 1561 MB
    Rozmiar segmentu: 10 MB
    Ilość segmentów: 157
    Liczba mirrorów: 9
    Hasło: www.ufs.pt

    Masz problem z programem M4UDownloader? Zajrzyj do działu Poradniki & FAQ tego programu.






    Przepraszamy, ale nie możesz zobaczyć tego tematu. Musisz sie Zarejestrować
    albo Zalogować

    Upload wykonany w M4UD 2.0.0
    Ostatnio edytowane przez Gwyn ; 06-10-2014 o 23:44 Powód: [E01]

  2. Liczba osób które doceniły autora: 6


  3.    Sponsored Links




  4. #2
    Hodie mihi cras tibi Awatar Gwyn
     Info : 
    Dołączył
    May 2011
    Skąd
    Turek/Poznań
    Posty
    5,744
     Podziękowania : 
    Podziękował: 1,796
    Doceniono: 20,325 razy w 373 postach
     UFS Stats Uploady : 
    Filmy: 229
    Gry: 194
    TV's: 44
    Porno: 4
     UFS Stats Konta : 
    Gmail: 133
    Inne: 289
     Total Upload : 
    P2M UP: 4080.65 GB
     Total CA : 
    Total CA: 10605 AC
    Gwyn jest nieaktywny

    Domyślnie

    Ostatnio edytowane przez Gwyn ; 06-10-2014 o 23:58



    Wstawka się spodobała? Nie zapomnij podziękować!

  5. #3
    Full Member
     Info : 
    Dołączył
    Aug 2008
    Skąd
    Rzeszów
    Posty
    292
     Podziękowania : 
    Podziękował: 241
    Doceniono: 0 razy w 0 postach
    Kacper16 jest nieaktywny

    Domyślnie

    Dzięki wielkie, myślę, że kolejne odcinki będą również wrzucane ! :)

Informacje o wątku

Użytkownicy przeglądający ten wątek

Aktualnie 1 użytkownik(ów) przegląda ten wątek. (0 zarejestrowany(ch) oraz 1 gości)

Podobne wątki

  1. 0.55GB Homeland [2014][S04E0102][WEB-DL][ENG]
    Przez Gotto w dziale Pojedyncze Odcinki
    Odpowiedzi: 1
    Ostatni post / autor: 06-10-2014, 21:01
  2. 0.35GB Person of Interest [2014][S04E01][HDTV][ENG]
    Przez kadeshar w dziale Pojedyncze Odcinki
    Odpowiedzi: 1
    Ostatni post / autor: 24-09-2014, 19:44
  3. 0.5GB Suits [S04E01][2014][HDTV][720p][x264][AC3][ENG]
    Przez sebaLEEDS w dziale Pojedyncze Odcinki
    Odpowiedzi: 1
    Ostatni post / autor: 25-06-2014, 08:40

Uprawnienia umieszczania postów

  • Nie możesz zakładać nowych tematów
  • Nie możesz pisać wiadomości
  • Nie możesz dodawać załączników
  • Nie możesz edytować swoich postów
  •