Aktualizacje seriali
 



Ogłoszenia
UFS - dotacje
Dotacje SMS
Jak korzystać z forumowej szukajki



Pokaż wyniki od 1 do 2 z 2

Wątek: The Blackout [2013][BRRip][ENG]

  1. #1
    Retired Awatar Gotto
     Info : 
    Dołączył
    Jun 2008
    Posty
    983
     Podziękowania : 
    Podziękował: 64
    Doceniono: 698 razy w 43 postach
     UFS Stats Uploady : 
    Filmy: 171
    Gry: 45
    Programy: 4
    TV's: 32
    Porno: 10
    Inne: 1
     UFS Stats Konta : 
    Gmail: 20
    Inne: 155
     Total Upload : 
    P2M UP: 526.4 GB
     Total CA : 
    Total CA: 9996 AC
    Gotto jest nieaktywny

    m4ud The Blackout [2013][BRRip][ENG]

    The Blackout



    Produkcja: USA
    Data Premiery:1 September 2013
    Reżyseria:Matt Hish
    Scenariusz:Keith Brown ,Scott Rosa
    Czas trwania:1 hour, 30 minutes
    Dystrybucja:
    Gatunek:komedia
    Ocena: / 10



    Some people drink to forget. Rock stars drink to remember.



    Michael Graziadei:Chas Knopfler
    Scott Rosa:Eddie Mesmer
    Flood Reed:Toss Dunbar
    John Joyce:Gunther Shea
    Autumn Federici:Jenny
    Matt Hish:Spencer Bayne









    Format : AVI
    Format/Info : Audio Video Interleave
    File size : 1.28 GiB
    Duration : 1h 31mn
    Overall bit rate : 1 993 Kbps
    Writing application : VirtualDubMod 1.5.10.2 (build 2542/release)
    Writing library : VirtualDubMod build 2542/release

    Video
    ID : 0
    Format : MPEG-4 Visual
    Format profile : Advanced Simple@L5
    Format settings, BVOP : 2
    Format settings, QPel : Yes
    Format settings, GMC : No warppoints
    Format settings, Matrix : Default (MPEG)
    Codec ID : XVID
    Codec ID/Hint : XviD
    Duration : 1h 31mn
    Bit rate : 1 600 Kbps
    Width : 720 pixels
    Height : 384 pixels
    Display aspect ratio : 1.85:1
    Frame rate : 25.000 fps
    Color space : YUV
    Chroma subsampling : 4:2:0
    Bit depth : 8 bits
    Scan type : Progressive
    Compression mode : Lossy
    Bits/(Pixel*Frame) : 0.231
    Stream size : 1.02 GiB (80%)
    Writing library : XviD 1.2.1 (UTC 2008-12-04)

    Audio
    ID : 1
    Format : AC-3
    Format/Info : Audio Coding 3
    Mode extension : CM (complete main)
    Format settings, Endianness : Big
    Codec ID : 2000
    Duration : 1h 31mn
    Bit rate mode : Constant
    Bit rate : 384 Kbps
    Channel(s) : 6 channels
    Channel positions : Front: L C R, Side: L R, LFE
    Sampling rate : 48.0 KHz
    Bit depth : 16 bits
    Compression mode : Lossy
    Stream size : 252 MiB (19%)
    Alignment : Split accross interleaves
    Interleave, duration : 40 ms (1.00 video frame)
    Interleave, preload duration : 500 ms



    Nazwa uploadu: The Blackout 2013 BRrip XviD AC3 MiLLENiUM
    Nazwa pliku: The Blackout 2013 BRrip XviD AC3 MiLLENiUM.avi
    Rozmiar uploadu: 1305 MB
    Rozmiar segmentu: 10 MB
    Ilość segmentów: 131
    Liczba mirrorów: 10
    Hasło: www.ufs.pt

    Masz problem z programem M4UDownloader? Zajrzyj do działu Poradniki & FAQ tego programu.






    Przepraszamy, ale nie możesz zobaczyć tego tematu. Musisz sie Zarejestrować
    albo Zalogować





    Przepraszamy, ale nie możesz zobaczyć tego tematu. Musisz sie Zarejestrować
    albo Zalogować

    Upload wykonany w M4UD 2.0.0

  2. Liczba osób które doceniły autora: 2


  3.    Sponsored Links




  4. #2
    Retired
     Info : 
    Dołączył
    Nov 2008
    Posty
    4,218
     Podziękowania : 
    Podziękował: 377
    Doceniono: 981 razy w 85 postach
     UFS Stats Uploady : 
    Filmy: 77.5
    Gry: 9
    Programy: 4
    TV's: 142
     Total Upload : 
    P2M UP: 812.8 GB
    Diller81 jest nieaktywny

    Domyślnie

    Ostatnio edytowane przez Diller81 ; 06-10-2014 o 08:07

Informacje o wątku

Użytkownicy przeglądający ten wątek

Aktualnie 1 użytkownik(ów) przegląda ten wątek. (0 zarejestrowany(ch) oraz 1 gości)

Podobne wątki

  1. Asylum Blackout [2011][DVDScr][ENG]
    Przez Look w dziale HQ (High Quality - Wysoka Jakość)
    Odpowiedzi: 1
    Ostatni post / autor: 06-05-2012, 09:32

Uprawnienia umieszczania postów

  • Nie możesz zakładać nowych tematów
  • Nie możesz pisać wiadomości
  • Nie możesz dodawać załączników
  • Nie możesz edytować swoich postów
  •