Aktualizacje seriali
 



Ogłoszenia
UFS - dotacje
Dotacje SMS
Jak korzystać z forumowej szukajki



Pokaż wyniki od 1 do 2 z 2

Wątek: Scooby Doo Stage Fright [2013][WEB-DL][1080p][x264][AC3][ENG][Animowany]

  1. #1
    Gdzie są pieniądze za las?! Awatar Stachu
     Info : 
    Dołączył
    Oct 2007
    Skąd
    Köln
    Posty
    9,414
     Podziękowania : 
    Podziękował: 243
    Doceniono: 37,499 razy w 1,148 postach
     UFS Stats Uploady : 
    Filmy: 892
    Gry: 597
    Programy: 14
    TV's: 297
    Muzyka: 87
    Porno: 69
    Inne: 66
    Małe uploady: 12
     UFS Stats Konta : 
    Gmail: 205
    Inne: 648
     Total Upload : 
    P2M UP: 8184.15 GB
     Total CA : 
    Total CA: 14861 AC
     Total HTTP Upload : 
    HTTP UP: 0.7 GB
    Stachu jest nieaktywny

    MD Scooby Doo Stage Fright [2013][WEB-DL][1080p][x264][AC3][ENG][Animowany]

    Scooby Doo Stage Fright



    Produkcja: USA
    Data Premiery: 2013-08-10 (świat), 2013-11-08 (dvd)
    Reżyseria: Victor Cook
    Scenariusz: Candie Langdale (historia), Douglas Langdale (również) (historia)
    Czas trwania:
    Dystrybucja:
    Gatunek:
    Ocena: 7,0 / 10



    Dołącz do Scooby-Doo, Kudłatego i Brygady Detektywów, którzy udają się do Chicago na konkurs talentów, wycieczkę po muzeach i degustowanie ogromnych ilości pizzy! Do ścisłego finału programu "Talent Star" zakwalifikowali się Fred i Daphne. Konkurencja jest jednak przerażająca - program nadawany jest z gmachu stuletniej opery, nawiedzanej przez szczególnie mściwego Upiora.




    Emma Gale (głos) - Isabella Acres
    Fantom / Lance Damon (głos) - Troy Baker
    K.J. (głos) - Eric Bauza






    Spoiler: 

    : C:\Users\support\Downloads\nowe\Scooby-Doo.i.Kinopotwory-Scooby.Doo.And.The.Movie.Monsters.2013.Dubbing.PL\ Scooby Doo Stage Fright 2013 1080p WEB-DL.mkv
    Format : Matroska
    Format version : Version 4 / Version 2
    File size : 3.15 GiB
    Duration : 1h 18mn
    Overall bit rate : 5 767 Kbps
    Encoded date : UTC 2013-11-18 06:58:31
    Writing application : mkvmerge v6.5.0 ('Isn't she lovely') built on Oct 20 2013 12:50:05
    Writing library : libebml v1.3.0 + libmatroska v1.4.1

    Video
    ID : 1
    Format : AVC
    Format/Info : Advanced Video Codec
    Format profile : High@L4.0
    Format settings, CABAC : Yes
    Format settings, ReFrames : 4 frames
    Codec ID : V_MPEG4/ISO/AVC
    Duration : 1h 18mn
    Bit rate : 5 076 Kbps
    Width : 1 918 pixels
    Height : 1 078 pixels
    Display aspect ratio : 16:9
    Frame rate mode : Constant
    Frame rate : 23.976 fps
    Color space : YUV
    Chroma subsampling : 4:2:0
    Bit depth : 8 bits
    Scan type : Progressive
    Bits/(Pixel*Frame) : 0.102
    Stream size : 2.78 GiB (88%)
    Language : English
    Default : Yes
    Forced : No
    Color primaries : BT.709
    Transfer characteristics : BT.709
    Matrix coefficients : BT.709

    Audio #1
    ID : 2
    Format : AC-3
    Format/Info : Audio Coding 3
    Mode extension : CM (complete main)
    Format settings, Endianness : Big
    Codec ID : A_AC3
    Duration : 1h 18mn
    Bit rate mode : Constant
    Bit rate : 192 Kbps
    Channel(s) : 2 channels
    Channel positions : Front: L R
    Sampling rate : 48.0 KHz
    Bit depth : 16 bits
    Compression mode : Lossy
    Stream size : 108 MiB (3%)
    Title : DUB
    Language : Russian
    Default : Yes
    Forced : No

    Audio #2
    ID : 3
    Format : AC-3
    Format/Info : Audio Coding 3
    Mode extension : CM (complete main)
    Format settings, Endianness : Big
    Codec ID : A_AC3
    Duration : 1h 18mn
    Bit rate mode : Constant
    Bit rate : 384 Kbps
    Channel(s) : 6 channels
    Channel positions : Front: L C R, Side: L R, LFE
    Sampling rate : 48.0 KHz
    Bit depth : 16 bits
    Compression mode : Lossy
    Stream size : 215 MiB (7%)
    Language : English
    Default : No
    Forced : No

    Text
    ID : 4
    Format : UTF-8
    Codec ID : S_TEXT/UTF8
    Codec ID/Info : UTF-8 Plain Text
    Language : Russian
    Default : No
    Forced : No

    Menu
    00:00:00.000 : en:1.
    00:09:46.000 : en:2.
    00:19:42.000 : en:3.
    00:31:39.000 : en:4.
    00:41:40.000 : en:5.
    00:52:30.000 : en:6.
    01:00:40.000 : en:7.
    01:10:17.000 : en:8.
    01:16:08.000 : en:9.





    Nazwa pliku: Scooby Doo Stage Fright 2013 1080p WEB-DL
    Wielkość uploadu: 3552 MB
    Uploader: Stachu
    Upload dla: www.ufs.pt
    Komentarz: Stachu rządzi
    Ilość segmentów: 237
    Ilość kont: 7

    Hasło: www.ufs.pt

    Masz problem z programem MailDownloader? Zajrzyj do działu Poradniki & FAQ tego programu.


    Zawartość Ukryta. Kliknij "PODZIĘKUJ" żeby zobaczyć hashcode. (ikonka browara)

    Upload zawiera 10% danych naprawczych!
    Jak korzystać z danych naprawczych? Tutaj znajdziesz poradnik!
    Upload wykonany w MS 2.1.5
    Ostatnio edytowane przez Stachu ; 04-09-2014 o 15:35
    Member -> Full Member -> UFS Trial -> UFS Uploader -> UFS Elite -> Moderator -> UFS Elite -> Super Vip -> Elite Kreator -> Elite Uploader -> Super Vip -> Elite Uploader -> Super Vip
    Intel Core i5 2500 3.3GHz
    SilentiumPC
    Asus H61
    Kingston HyperX 16GB DDR3 1600MHz
    Seagate 500GB
    Toshiba 320GB
    Seagate Desktop HDD 2TB
    GoodRam SSD 120GB
    Gigabyte GeForce 1060 6GB XTreme OC
    Nagrywarka Asus
    Thermaltake Modular SE 530W
    Zalman 3 Plus White



  2. Liczba osób które doceniły autora: 12


  3.    Sponsored Links




  4. #2
    Legends Awatar kadeshar
     Info : 
    Dołączył
    Sep 2008
    Posty
    6,668
     Podziękowania : 
    Podziękował: 2,001
    Doceniono: 18,211 razy w 624 postach
     UFS Stats Uploady : 
    Filmy: 205
    Gry: 135
    Programy: 3
    TV's: 89
    Inne: 49
    Małe uploady: 3
     UFS Stats Konta : 
    Gmail: 162
    Inne: 216
     Total Upload : 
    P2M UP: 1508.8 GB
     Total CA : 
    Total CA: 8830 AC
    kadeshar jest nieaktywny

    Domyślnie

    Ostatnio edytowane przez kadeshar ; 05-09-2014 o 07:46
    W razie problemów z moim uploadem proszę pisać w temacie i dokładnie opisywać problemy (nr błędu, problem z jakimi skrzynkami itd.)

Informacje o wątku

Użytkownicy przeglądający ten wątek

Aktualnie 1 użytkownik(ów) przegląda ten wątek. (0 zarejestrowany(ch) oraz 1 gości)

Podobne wątki

  1. 2GB Scooby Doo i Frankenstrachy [2014][BluRay][720p][x264][AC3][DUB-PL][Animowany]
    Przez Stachu w dziale Bajki & Filmy Animowane
    Odpowiedzi: 1
    Ostatni post / autor: 02-09-2014, 22:44
  2. 2.5GB Fright Night 2 [2013][BRRip][X264][720p][AC3][ENG]
    Przez Gotto w dziale Filmy High Definition [Dział od rangi Full Member]
    Odpowiedzi: 1
    Ostatni post / autor: 25-01-2014, 16:16

Uprawnienia umieszczania postów

  • Nie możesz zakładać nowych tematów
  • Nie możesz pisać wiadomości
  • Nie możesz dodawać załączników
  • Nie możesz edytować swoich postów
  •