Aktualizacje seriali
 



Ogłoszenia
UFS - dotacje
Dotacje SMS
Jak korzystać z forumowej szukajki



Pokaż wyniki od 1 do 2 z 2

Wątek: Scooby Doo i Frankenstrachy [2014][BluRay][720p][x264][AC3][DUB-PL][Animowany]

  1. #1
    Gdzie są pieniądze za las?! Awatar Stachu
     Info : 
    Dołączył
    Oct 2007
    Skąd
    Köln
    Posty
    9,414
     Podziękowania : 
    Podziękował: 243
    Doceniono: 37,497 razy w 1,148 postach
     UFS Stats Uploady : 
    Filmy: 892
    Gry: 597
    Programy: 14
    TV's: 297
    Muzyka: 87
    Porno: 69
    Inne: 66
    Małe uploady: 12
     UFS Stats Konta : 
    Gmail: 205
    Inne: 648
     Total Upload : 
    P2M UP: 8184.15 GB
     Total CA : 
    Total CA: 14861 AC
     Total HTTP Upload : 
    HTTP UP: 0.7 GB
    Stachu jest nieaktywny

    MD Scooby Doo i Frankenstrachy [2014][BluRay][720p][x264][AC3][DUB-PL][Animowany]

    Scooby Doo i Frankenstrachy



    Produkcja: USA
    Gatunek: Animacja
    Czas trwania: 73 min.
    Premiera: 19.08.2014 - Świat
    Reżyseria: Paul McEvoy
    Scenariusz: Jim Krieg
    Język: Polski Dubbing




    Velma otrzymuje w spadku po dalekim krewnym zamek w Transylwanii. Tajemnicza Spółka szybko odkrywa, że odziedziczony przez ich koleżankę dobytek jest przeklęty



    Frank Welker
    Matthew Lillard
    Grey DeLisle Griffin






    Spoiler: 

    Format : Matroska
    Format version : Version 4 / Version 2
    File size : 1.63 GiB
    Duration : 1h 13mn
    Overall bit rate : 3 164 Kbps
    Encoded date : UTC 2014-08-30 16:22:10
    Writing application : mkvmerge v6.9.1 ('Blue Panther') 64bit built on Apr 18 2014 18:23:38
    Writing library : libebml v1.3.0 + libmatroska v1.4.1

    Video
    ID : 1
    Format : AVC
    Format/Info : Advanced Video Codec
    Format profile : High@L3.1
    Format settings, CABAC : Yes
    Format settings, ReFrames : 5 frames
    Codec ID : V_MPEG4/ISO/AVC
    Duration : 1h 13mn
    Bit rate : 2 720 Kbps
    Width : 1 280 pixels
    Height : 720 pixels
    Display aspect ratio : 16:9
    Frame rate mode : Constant
    Frame rate : 23.976 fps
    Color space : YUV
    Chroma subsampling : 4:2:0
    Bit depth : 8 bits
    Scan type : Progressive
    Bits/(Pixel*Frame) : 0.123
    Stream size : 1.37 GiB (84%)
    Writing library : x264 core 142 r2453 ea0ca51
    Encoding settings : cabac=1 / ref=5 / deblock=1:2:1 / analyse=0x3:0x113 / me=umh / subme=8 / psy=1 / psy_rd=0.60:0.00 / mixed_ref=1 / me_range=16 / chroma_me=1 / trellis=1 / 8x8dct=1 / cqm=0 / deadzone=21,11 / fast_pskip=0 / chroma_qp_offset=-2 / threads=6 / lookahead_threads=1 / sliced_threads=0 / nr=0 / decimate=1 / interlaced=0 / bluray_compat=0 / constrained_intra=0 / bframes=5 / b_pyramid=2 / b_adapt=2 / b_bias=0 / direct=3 / weightb=1 / open_gop=0 / weightp=2 / keyint=250 / keyint_min=23 / scenecut=40 / intra_refresh=0 / rc_lookahead=50 / rc=2pass / mbtree=1 / bitrate=2720 / ratetol=1.0 / qcomp=0.60 / qpmin=0 / qpmax=69 / qpstep=4 / cplxblur=20.0 / qblur=0.5 / ip_ratio=1.40 / aq=1:0.60
    Default : Yes
    Forced : No

    Audio
    ID : 2
    Format : AC-3
    Format/Info : Audio Coding 3
    Mode extension : CM (complete main)
    Format settings, Endianness : Big
    Codec ID : A_AC3
    Duration : 1h 13mn
    Bit rate mode : Constant
    Bit rate : 448 Kbps
    Channel(s) : 6 channels
    Channel positions : Front: L C R, Side: L R, LFE
    Sampling rate : 48.0 KHz
    Bit depth : 16 bits
    Compression mode : Lossy
    Stream size : 236 MiB (14%)
    Language : Polish
    Default : Yes
    Forced : Yes




    Nazwa pliku: Scoby.2014.PL.720p.BluRay.x264.AC3-MiNS1
    Wielkość uploadu: 1836 MB
    Uploader: Stachu
    Upload dla: www.ufs.pt
    Ilość segmentów: 123
    Ilość kont: 6

    Upload dla: www.ufs.pt [/b]

    Hasło: www.ufs.pt

    Masz problem z programem MailDownloader? Zajrzyj do działu Poradniki & FAQ tego programu.


    Zawartość Ukryta. Kliknij "PODZIĘKUJ" żeby zobaczyć hashcode. (ikonka browara)


    Upload zawiera 10% danych naprawczych!
    Jak korzystać z danych naprawczych? Tutaj znajdziesz poradnik!

    Novy Rządzi
    Ostatnio edytowane przez Stachu ; 02-09-2014 o 22:55
    Member -> Full Member -> UFS Trial -> UFS Uploader -> UFS Elite -> Moderator -> UFS Elite -> Super Vip -> Elite Kreator -> Elite Uploader -> Super Vip -> Elite Uploader -> Super Vip
    Intel Core i5 2500 3.3GHz
    SilentiumPC
    Asus H61
    Kingston HyperX 16GB DDR3 1600MHz
    Seagate 500GB
    Toshiba 320GB
    Seagate Desktop HDD 2TB
    GoodRam SSD 120GB
    Gigabyte GeForce 1060 6GB XTreme OC
    Nagrywarka Asus
    Thermaltake Modular SE 530W
    Zalman 3 Plus White



  2. Liczba osób które doceniły autora: 32


  3.    Sponsored Links




  4. #2
    Legends Awatar kadeshar
     Info : 
    Dołączył
    Sep 2008
    Posty
    6,668
     Podziękowania : 
    Podziękował: 2,001
    Doceniono: 18,211 razy w 624 postach
     UFS Stats Uploady : 
    Filmy: 205
    Gry: 135
    Programy: 3
    TV's: 89
    Inne: 49
    Małe uploady: 3
     UFS Stats Konta : 
    Gmail: 162
    Inne: 216
     Total Upload : 
    P2M UP: 1508.8 GB
     Total CA : 
    Total CA: 8830 AC
    kadeshar jest nieaktywny

    Domyślnie

    Ostatnio edytowane przez kadeshar ; 02-09-2014 o 23:03
    W razie problemów z moim uploadem proszę pisać w temacie i dokładnie opisywać problemy (nr błędu, problem z jakimi skrzynkami itd.)

Informacje o wątku

Użytkownicy przeglądający ten wątek

Aktualnie 1 użytkownik(ów) przegląda ten wątek. (0 zarejestrowany(ch) oraz 1 gości)

Podobne wątki

  1. 0.75GB Scooby Doo i Frankenstrachy [2014][BRRip][AC3][DUB-PL][Animowany]
    Przez Stachu w dziale Bajki & Filmy Animowane
    Odpowiedzi: 1
    Ostatni post / autor: 02-09-2014, 21:26

Uprawnienia umieszczania postów

  • Nie możesz zakładać nowych tematów
  • Nie możesz pisać wiadomości
  • Nie możesz dodawać załączników
  • Nie możesz edytować swoich postów
  •