Aktualizacje seriali
 



Ogłoszenia
UFS - dotacje
Dotacje SMS
Jak korzystać z forumowej szukajki



Pokaż wyniki od 1 do 7 z 7

Wątek: Godzilla [2014][WEBRip][720p][AC3][ENG]

  1. #1
    .::dEpeChe mOde::. Awatar DM
     Info : 
    Dołączył
    Mar 2008
    Skąd
    Klucze
    Posty
    2,583
     Podziękowania : 
    Podziękował: 666
    Doceniono: 40,359 razy w 269 postach
     UFS Stats Uploady : 
    Filmy: 347
    Gry: 16
    Programy: 1
    TV's: 43
    Muzyka: 3
    Porno: 7
    Inne: 9
     UFS Stats Konta : 
    Gmail: 36
    Inne: 79
     Total Upload : 
    P2M UP: 1723.92 GB
     Total CA : 
    Total CA: 1275 AC
    DM jest nieaktywny

    m4ud Godzilla [2014][WEBRip][720p][AC3][ENG]

    Godzilla
    Godzilla



    Gatunek: Thriller, Akcja
    Produkcja: Japonia, USA
    Data Premiery: 16 maja 2014 (Polska) 8 maja 2014 (świat)
    Reżyseria: Gareth Edwards
    Scenariusz: Max Borenstein
    Zdjęcia: Seamus McGarvey
    Muzyka: Alexandre Desplat
    Dystrybucja: Warner Bros. Entertainment Polska Sp. z o. o.


    Zapierająca dech w piersiach reaktywacja historii kultowej Godzilli — postaci zrodzonej w wytwórni Toho. Tworzony z rozmachem film przygodowy, który pokazuje walkę najsławniejszego na świecie potwora przeciwko złym stworzeniom, które czerpią siłę z arogancji ludzkości wobec nauki i zagrażają światu.


    Aaron Taylor-Johnson - Ford Brody
    Ken Watanabe - Dr Ichiro Serizawa
    Bryan Cranston - Joe Brody
    Elizabeth Olsen - Elle Brody






    Video
    ID : 0
    Format : MPEG-4 Visual
    Format profile : Advanced Simple@L5
    Format settings, BVOP : 1
    Format settings, QPel : No
    Format settings, GMC : No warppoints
    Format settings, Matrix : Default (H.263)
    Codec ID : XVID
    Codec ID/Hint : XviD
    Duration : 1h 58mn
    Bit rate : 2 501 Kbps
    Width : 1 280 pixels
    Height : 496 pixels
    Display aspect ratio : 2.581
    Frame rate : 25.000 fps
    Color space : YUV
    Chroma subsampling : 4:2:0
    Bit depth : 8 bits
    Scan type : Progressive
    Compression mode : Lossy
    Bits/(Pixel*Frame) : 0.158
    Stream size : 2.06 GiB (86%)
    Writing library : XviD 1.2.1 (UTC 2008-12-04)

    Audio
    ID : 1
    Format : AC-3
    Format/Info : Audio Coding 3
    Mode extension : CM (complete main)
    Codec ID : 2000
    Duration : 1h 58mn
    Bit rate mode : Constant
    Bit rate : 384 Kbps
    Channel(s) : 2 channels
    Channel positions : Front: L R
    Sampling rate : 44.1 KHz
    Bit depth : 16 bits
    Compression mode : Lossy
    Delay relative to video : 300ms
    Stream size : 324 MiB (13%)
    Alignment : Split accross interleaves
    Interleave, duration : 40 ms (1.00 video frame)
    Interleave, preload duration : 500 ms


    Nazwa uploadu: Godzilla.2014.WEBRiP.XviD-VAiN
    Nazwa pliku: Godzilla.2014.WEBRiP.XviD-VAiN.avi
    Rozmiar uploadu: 2444 MB
    Rozmiar segmentu: 8 MB
    Ilość segmentów: 306
    Liczba mirrorów: 12
    Uploader: tusty
    Upload dla: ufs
    Hasło: www.ufs.pt

    Masz problem z programem M4UDownloader? Zajrzyj do działu Poradniki & FAQ tego programu.


    Zawartość Ukryta. Kliknij "PODZIĘKUJ" żeby zobaczyć hashcode. (ikonka browara)

    Ostatnio edytowane przez Gwyn ; 07-08-2014 o 17:50







    Kliknij w dziękuje a zobaczysz HC

    <------------------


  2. Liczba osób które doceniły autora: 414


  3.    Sponsored Links




  4. #2
    Jepać Goroli Awatar Sarius
     Info : 
    Dołączył
    Feb 2012
    Skąd
    Rybnik-Holandia
    Posty
    2,709
     Podziękowania : 
    Podziękował: 406
    Doceniono: 2,067 razy w 406 postach
     UFS Stats Uploady : 
    Filmy: 26
    Gry: 1
    TV's: 1
     UFS Stats Konta : 
    Gmail: 410
    Inne: 1136
     Total Upload : 
    P2M UP: 89.5 GB
     Total CA : 
    Total CA: 36577 AC
    Sarius jest nieaktywny

    Domyślnie


  5. #3
    Full Member Awatar Crixu
     Info : 
    Dołączył
    May 2008
    Skąd
    Mysłowice
    Posty
    398
     Podziękowania : 
    Podziękował: 352
    Doceniono: 0 razy w 0 postach
    Crixu jest nieaktywny

    Domyślnie

    Jak z jakością?

  6. #4
    .::dEpeChe mOde::. Awatar DM
     Info : 
    Dołączył
    Mar 2008
    Skąd
    Klucze
    Posty
    2,583
     Podziękowania : 
    Podziękował: 666
    Doceniono: 40,359 razy w 269 postach
     UFS Stats Uploady : 
    Filmy: 347
    Gry: 16
    Programy: 1
    TV's: 43
    Muzyka: 3
    Porno: 7
    Inne: 9
     UFS Stats Konta : 
    Gmail: 36
    Inne: 79
     Total Upload : 
    P2M UP: 1723.92 GB
     Total CA : 
    Total CA: 1275 AC
    DM jest nieaktywny

    Domyślnie

    Cytat Zamieszczone przez Crixu Zobacz posta
    Jak z jakością?
    taka sobie cos jak dvdrip bardziej







    Kliknij w dziękuje a zobaczysz HC

    <------------------


  7. #5
    Full Member
     Info : 
    Dołączył
    Jun 2009
    Posty
    216
     Podziękowania : 
    Podziękował: 173
    Doceniono: 0 razy w 0 postach
    artek73 jest nieaktywny

    Domyślnie

    byleby nie żadne CAM shit :)

  8. #6
    Full Member
     Info : 
    Dołączył
    Sep 2007
    Posty
    148
     Podziękowania : 
    Podziękował: 141
    Doceniono: 0 razy w 0 postach
    kamil2232 jest nieaktywny

    Domyślnie

    Czy tylko ja nie posiadam głosu w filmie ?

  9. #7
    Full Member
     Info : 
    Dołączył
    Jun 2009
    Posty
    216
     Podziękowania : 
    Podziękował: 173
    Doceniono: 0 razy w 0 postach
    artek73 jest nieaktywny

    Domyślnie

    Chyba tylko Ty bo ja mam ale nie ma nigdzie napisów do tej wersji :(

Informacje o wątku

Użytkownicy przeglądający ten wątek

Aktualnie 1 użytkownik(ów) przegląda ten wątek. (0 zarejestrowany(ch) oraz 1 gości)

Podobne wątki

  1. 0.7GB Cloud 9 [2014][WEBRip][ENG]
    Przez Only one w dziale HQ (High Quality - Wysoka Jakość)
    Odpowiedzi: 1
    Ostatni post / autor: 27-01-2014, 18:28

Uprawnienia umieszczania postów

  • Nie możesz zakładać nowych tematów
  • Nie możesz pisać wiadomości
  • Nie możesz dodawać załączników
  • Nie możesz edytować swoich postów
  •