Aktualizacje seriali
 



Ogłoszenia
UFS - dotacje
Dotacje SMS
Jak korzystać z forumowej szukajki



Pokaż wyniki od 1 do 2 z 2

Wątek: Aaahh!!! Real Monsters [S02] [1994 - 1998][DVDRip][x264][ENG][Animowany]

  1. #1
    Retired Awatar ZielonY
     Info : 
    Dołączył
    Dec 2013
    Skąd
    ja to znam?
    Posty
    7,742
     Podziękowania : 
    Podziękował: 3,103
    Doceniono: 13,579 razy w 267 postach
     UFS Stats Uploady : 
    Filmy: 144
    Gry: 9
    Programy: 1
    TV's: 19
    Muzyka: 13
    Porno: 2
    Małe uploady: 1
     UFS Stats Konta : 
    Gmail: 28
    Inne: 167
     Total Upload : 
    P2M UP: 1030.38 GB
     Total CA : 
    Total CA: 6695 AC
    ZielonY jest nieaktywny

    m4ud Aaahh!!! Real Monsters [S02] [1994 - 1998][DVDRip][x264][ENG][Animowany]

    Aaahh!!! Prawdziwe potwory

    Aaahh!!! Real Monsters




    Produkcja: USA
    Data Premiery: 1994-10-29 (świat)
    Reżyseria:
    Scenariusz:
    Czas trwania: odc.: 30 minut
    Dystrybucja:
    Gatunek: Animowany | Familijny | Komedia | Horror
    Ocena: 7,0 / 10



    Serial pokazuje dzień powszedni młodych potworów. Trzy zaprzyjaźnione potworki uczą się, jak straszyć ludzi, w szkole. Często ich próby nie wychodzą tak, jak planowali.







    General
    Unique ID : 219894897721264075968777586538842404338 (0xA56E37811E38967882B26D1D30D3B5F2)
    Complete name : C:\UFS\aaahh\Aaahh!!! Real Monsters Season 1-4 [DVDRip][x264]\1x02 - Monsters, Get Real~Snorched if You Do, Snorched if You Don't.mkv
    Format : Matroska
    Format version : Version 2
    File size : 313 MiB
    Duration : 23mn 50s
    Overall bit rate : 1 836 Kbps
    Encoded date : UTC 2012-12-15 04:33:31
    Writing application : mkvmerge v5.8.0 ('No Sleep / Pillow') built on Sep 2 2012 15:37:04
    Writing library : libebml v1.2.3 + libmatroska v1.3.0

    Video
    ID : 1
    Format : AVC
    Format/Info : Advanced Video Codec
    Format profile : High@L4.1
    Format settings, CABAC : Yes
    Format settings, ReFrames : 6 frames
    Muxing mode : Header stripping
    Codec ID : V_MPEG4/ISO/AVC
    Duration : 23mn 50s
    Bit rate : 1 500 Kbps
    Width : 720 pixels
    Height : 480 pixels
    Display aspect ratio : 3:2
    Frame rate mode : Constant
    Frame rate : 29.970 fps
    Standard : NTSC
    Color space : YUV
    Chroma subsampling : 4:2:0
    Bit depth : 8 bits
    Scan type : Progressive
    Bits/(Pixel*Frame) : 0.145
    Stream size : 269 MiB (86%)
    Writing library : x264 core 125 r2200 999b753
    Encoding settings : cabac=1 / ref=6 / deblock=1:1:1 / analyse=0x3:0x113 / me=tesa / subme=8 / psy=1 / psy_rd=0.40:0.00 / mixed_ref=1 / me_range=32 / chroma_me=1 / trellis=2 / 8x8dct=1 / cqm=0 / deadzone=21,11 / fast_pskip=1 / chroma_qp_offset=-2 / threads=6 / lookahead_threads=1 / sliced_threads=0 / nr=0 / decimate=1 / interlaced=0 / bluray_compat=0 / constrained_intra=0 / bframes=5 / b_pyramid=0 / b_adapt=2 / b_bias=0 / direct=3 / weightb=1 / open_gop=0 / weightp=2 / keyint=300 / keyint_min=29 / scenecut=40 / intra_refresh=0 / rc_lookahead=40 / rc=abr / mbtree=1 / bitrate=1500 / ratetol=75.0 / qcomp=0.60 / qpmin=10 / qpmax=51 / qpstep=4 / vbv_maxrate=50000 / vbv_bufsize=50000 / nal_hrd=none / ip_ratio=1.40 / aq=1:0.60
    Language : English
    Default : Yes
    Forced : No

    Audio
    ID : 2
    Format : AC-3
    Format/Info : Audio Coding 3
    Mode extension : CM (complete main)
    Format settings, Endianness : Big
    Muxing mode : Header stripping
    Codec ID : A_AC3
    Duration : 23mn 50s
    Bit rate mode : Constant
    Bit rate : 224 Kbps
    Channel(s) : 2 channels
    Channel positions : Front: L R
    Sampling rate : 48.0 KHz
    Bit depth : 16 bits
    Compression mode : Lossy
    Stream size : 38.2 MiB (12%)
    Default : Yes
    Forced : No



    Nazwa uploadu: Aaahh!!! Real Monsters Season 2 JPatryk dla UFS.part3
    Nazwa pliku: Aaahh!!! Real Monsters Season 2 JPatryk dla UFS.part3.rar
    Rozmiar uploadu: 95 MB
    Ilość segmentów: 10
    Rozmiar segmentu: 10 MB
    Liczba mirrorów: 4

    Nazwa uploadu: Aaahh!!! Real Monsters Season 2 JPatryk dla UFS.part2
    Nazwa pliku: Aaahh!!! Real Monsters Season 2 JPatryk dla UFS.part2.rar
    Rozmiar uploadu: 2048 MB
    Ilość segmentów: 205
    Rozmiar segmentu: 10 MB
    Liczba mirrorów: 10

    Nazwa uploadu: Aaahh!!! Real Monsters Season 2 JPatryk dla UFS.part1
    Nazwa pliku: Aaahh!!! Real Monsters Season 2 JPatryk dla UFS.part1.rar
    Rozmiar uploadu: 2048 MB
    Ilość segmentów: 205
    Rozmiar segmentu: 10 MB
    Liczba mirrorów: 10
    Hasło: www.ufs.pt

    Masz problem z programem M4UDownloader? Zajrzyj do działu Poradniki & FAQ tego programu.


    Zawartość Ukryta. Kliknij "PODZIĘKUJ" żeby zobaczyć hashcode. (ikonka browara)

    Upload zawiera 10% danych naprawczych!
    Jak korzystać z danych naprawczych? Tutaj znajdziesz poradnik!
    Upload wykonany w M4UD 2.1.0
    Ostatnio edytowane przez DM ; 19-03-2014 o 13:07

    Member > Full Member > UFS Trial > UFS Uploader > Super Uploader > UFS Elite > Super Vip > UFS Elite >Moderator > Super Moderator > Retired

  2. Liczba osób które doceniły autora: 1


  3.    Sponsored Links




  4. #2
    .::dEpeChe mOde::. Awatar DM
     Info : 
    Dołączył
    Mar 2008
    Skąd
    Klucze
    Posty
    2,584
     Podziękowania : 
    Podziękował: 667
    Doceniono: 40,372 razy w 269 postach
     UFS Stats Uploady : 
    Filmy: 347
    Gry: 16
    Programy: 1
    TV's: 43
    Muzyka: 3
    Porno: 7
    Inne: 9
     UFS Stats Konta : 
    Gmail: 36
    Inne: 79
     Total Upload : 
    P2M UP: 1723.92 GB
     Total CA : 
    Total CA: 1275 AC
    DM jest nieaktywny

    Domyślnie

    niezatwierdzone
    Ostatnio edytowane przez DM ; 19-03-2014 o 13:11







    Kliknij w dziękuje a zobaczysz HC

    <------------------


Informacje o wątku

Użytkownicy przeglądający ten wątek

Aktualnie 1 użytkownik(ów) przegląda ten wątek. (0 zarejestrowany(ch) oraz 1 gości)

Podobne wątki

  1. 4.5GB Aaahh!!! Real Monsters [S01] [1994 - 1998][DVDRip][x264][ENG][Animowany]
    Przez ZielonY w dziale Pełne Sezony [Dział od rangi Full Member]
    Odpowiedzi: 1
    Ostatni post / autor: 19-03-2014, 12:53

Uprawnienia umieszczania postów

  • Nie możesz zakładać nowych tematów
  • Nie możesz pisać wiadomości
  • Nie możesz dodawać załączników
  • Nie możesz edytować swoich postów
  •