Aktualizacje seriali
 



Ogłoszenia
UFS - dotacje
Dotacje SMS
Jak korzystać z forumowej szukajki



Pokaż wyniki od 1 do 8 z 8

Wątek: 47 Ronin [2013][WEBRip][x264][ENG]

  1. #1
    Awatar JRK
     Info : 
    Dołączył
    Nov 2007
    Posty
    7,425
     Podziękowania : 
    Podziękował: 2,541
    Doceniono: 16,709 razy w 517 postach
     UFS Stats Uploady : 
    Filmy: 438
    Gry: 51
    Programy: 41
    TV's: 6
    Muzyka: 40
    Inne: 15
    Małe uploady: 1
     UFS Stats Konta : 
    Gmail: 79
    Inne: 177
     Total Upload : 
    P2M UP: 2723.7 GB
     Total CA : 
    Total CA: 8275 AC
    JRK jest nieaktywny

    m4ud 47 Ronin [2013][WEBRip][x264][ENG]

    47 roninów
    47 Ronin



    Gatunek: Fantasy, Przygodowy
    Produkcja: USA
    Data Premiery: 10 stycznia 2014 (Polska) 6 grudnia 2013 (świat)
    Reżyseria: Carl Rinsch
    Scenariusz: Chris Morgan, Hossein Amini
    Zdjęcia: John Mathieson
    Muzyka: Ilan Eshkeri
    Dystrybucja: United International Pictures Sp z o.o.


    Film oparty na na legendarnej historii 47 roninów z początku XVIII wieku.* Grupa samurajów przez rok planowała zemstę za śmierć swojego pana na urzędniku sądowym. Winni morderstwa, zgodnie z kodeksem bushido, popełnili grupowe seppuku. Do dziś uważani są za bohaterów narodowych, symbol walki o sprawiedliwość nawet za cenę życia.


    Keanu Reeves - Kai
    Hiroyuki Sanada - Ôishi
    Kô Shibasaki - Mika
    Tadanobu Asano - Lord Kira








    General

    Format : Matroska
    Format version : Version 2
    File size : 1.20 GiB
    Duration : 1h 54mn
    Overall bit rate : 1 494 Kbps
    Encoded date : UTC 2014-03-15 12:26:33
    Writing application : mkvmerge v6.8.0 ('Theme for Great Cities') 32bit built on Mar 2 2014 21:27:07
    Writing library : libebml v1.3.0 + libmatroska v1.4.1

    Video
    ID : 1
    Format : AVC
    Format/Info : Advanced Video Codec
    Format profile : High@L3.0
    Format settings, CABAC : Yes
    Format settings, ReFrames : 4 frames
    Codec ID : V_MPEG4/ISO/AVC
    Duration : 1h 54mn
    Bit rate : 1 301 Kbps
    Width : 720 pixels
    Height : 400 pixels
    Display aspect ratio : 16:9
    Frame rate mode : Constant
    Frame rate : 23.976 fps
    Color space : YUV
    Chroma subsampling : 4:2:0
    Bit depth : 8 bits
    Scan type : Progressive
    Bits/(Pixel*Frame) : 0.188
    Stream size : 1.02 GiB (85%)
    Writing library : x264 core 140 r2377 1ca7bb9
    Default : Yes
    Forced : No

    Audio

    ID : 2
    Format : AC-3
    Format/Info : Audio Coding 3
    Mode extension : CM (complete main)
    Format settings, Endianness : Big
    Codec ID : A_AC3
    Duration : 1h 54mn
    Bit rate mode : Constant
    Bit rate : 192 Kbps
    Channel(s) : 2 channels
    Channel positions : Front: L R
    Sampling rate : 44.1 KHz
    Bit depth : 16 bits
    Compression mode : Lossy
    Stream size : 158 MiB (13%)
    Default : Yes
    Forced : No


    Nazwa pliku: 47 Ronin 2014 WEBRIP x264 AC3 TiTAN.mkv
    Rozmiar uploadu: 1226 MB
    Rozmiar segmentu: 15 MB
    Ilość segmentów: 82
    Liczba mirrorów: 8
    Uploader: JRK
    Upload dla: ufs
    Hasło: www.ufs.pt

    Masz problem z programem M4UDownloader? Zajrzyj do działu Poradniki & FAQ tego programu.


    Nowy HC

    Zawartość Ukryta. Kliknij "PODZIĘKUJ" żeby zobaczyć hashcode. (ikonka browara)
    Ostatnio edytowane przez jeep ; 28-09-2016 o 21:54

  2. Liczba osób które doceniły autora: 465


  3.    Sponsored Links




  4. #2
    Retired Awatar Freddy
     Info : 
    Dołączył
    Nov 2007
    Skąd
    Zasiedmiogórogrodzie
    Posty
    3,806
     Podziękowania : 
    Podziękował: 243
    Doceniono: 591 razy w 246 postach
     UFS Stats Uploady : 
    Filmy: 179
    Gry: 159
    Programy: 5
    TV's: 143
    Muzyka: 26
    Porno: 52
    Inne: 4
    Małe uploady: 3
     UFS Stats Konta : 
    Gmail: 95
    Inne: 410
     Total Upload : 
    P2M UP: 1538.4 GB
     Total CA : 
    Total CA: 9305 AC
    Freddy jest nieaktywny

    Domyślnie

    Ostatnio edytowane przez Freddy ; 15-03-2014 o 18:01



    ----


    ----


    100% moich uploadów spakowanych w rarze zawiera dane naprawcze.
    ----

  5. #3
    Full Member Awatar GoBiNeQ
     Info : 
    Dołączył
    Oct 2008
    Skąd
    Warszawa
    Posty
    334
     Podziękowania : 
    Podziękował: 310
    Thanked 1 Time in 1 Post
    GoBiNeQ jest nieaktywny

    icon

    boszz, czemu te skrzynki tak masakrycznie padaja.. to jest bez sensu -.-

    ps. uzupelnie post jesli wg. to sie uda sciagnac...
    Ostatnio edytowane przez GoBiNeQ ; 16-03-2014 o 21:01 Powód: Oj chyba jednak się skończy tak jak zazwyczaj ze swiezymi wstawkami na ufsie.. turn on torrent..
    Jakiś problem? Już lecę Ci pomóc Jakoś się dogadamy

  6. #4
    Full Member
     Info : 
    Dołączył
    Feb 2008
    Posty
    890
     Podziękowania : 
    Podziękował: 882
    Doceniono: 2 raz w 1 poście
    Prezmo jest nieaktywny

    Domyślnie

    Ja pobrałem bez problemu. Większy problem sprawia mi znalezienie odpowiednich kodeków, bo nie spojrzałem na format filmu.

  7. #5
    Full Member
     Info : 
    Dołączył
    Nov 2007
    Skąd
    Warszawa
    Posty
    105
     Podziękowania : 
    Podziękował: 101
    Doceniono: 0 razy w 0 postach
    _pro_ jest nieaktywny

    Domyślnie

    Nazwa uploadu: 47 Ronin 2014 WEBRIP x264 AC3 TiTAN
    Nazwa pliku: 47 Ronin 2014 WEBRIP x264 AC3 TiTAN.mkv
    Rozmiar uploadu: 1226 MB
    Rozmiar segmentu: 15 MB
    Ilość segmentów: 82
    Liczba mirrorów: 8

    Mirror 1 [wp.pl]

    Plików na koncie: 82

    Mirror 2 [mail.ru]

    Plików na koncie: 82

    Mirror 3 [mail.ru]

    Plików na koncie: 82

    Mirror 4 [o2.pl]

    Nieznany błąd!

    Mirror 5 [o2.pl]

    Nieznany błąd!

    Mirror 6 [g.pl]

    Nieznany błąd!

    Mirror 7 [gazeta.pl]

    Nieznany błąd!

    Mirror 8 [gazeta.pl]

    Nieznany błąd!

    Zakończono sprawdzanie!

  8. #6
    Awatar JRK
     Info : 
    Dołączył
    Nov 2007
    Posty
    7,425
     Podziękowania : 
    Podziękował: 2,541
    Doceniono: 16,709 razy w 517 postach
     UFS Stats Uploady : 
    Filmy: 438
    Gry: 51
    Programy: 41
    TV's: 6
    Muzyka: 40
    Inne: 15
    Małe uploady: 1
     UFS Stats Konta : 
    Gmail: 79
    Inne: 177
     Total Upload : 
    P2M UP: 2723.7 GB
     Total CA : 
    Total CA: 8275 AC
    JRK jest nieaktywny

    Domyślnie

    Ta paczka kodeków i działa wszystko http://www.codecguide.com/download_k..._pack_mega.htm
    Dodany nowy hc
    Ostatnio edytowane przez JRK ; 19-03-2014 o 15:50

  9. #7
    Full Member
     Info : 
    Dołączył
    Feb 2008
    Posty
    215
     Podziękowania : 
    Podziękował: 197
    Doceniono: 0 razy w 0 postach
    kabel90 jest nieaktywny

    Domyślnie

    Coś jest nie tak z skrzynkami, pobiera strasznie wolno 19-20 kB/s

  10. #8
    VIP
     Info : 
    Dołączył
    May 2007
    Posty
    335
     Podziękowania : 
    Podziękował: 327
    Doceniono: 0 razy w 0 postach
    quantiz jest nieaktywny

    Domyślnie

    u mnie ciągnie tylko z o2 reszta mirrorów wyłączona

Informacje o wątku

Użytkownicy przeglądający ten wątek

Aktualnie 1 użytkownik(ów) przegląda ten wątek. (0 zarejestrowany(ch) oraz 1 gości)

Podobne wątki

  1. 0.8GB The Croods [2013][WEBRip][X264][ENG][Animowany]
    Przez Liuk w dziale Bajki & Filmy Animowane
    Odpowiedzi: 1
    Ostatni post / autor: 05-07-2013, 22:21

Uprawnienia umieszczania postów

  • Nie możesz zakładać nowych tematów
  • Nie możesz pisać wiadomości
  • Nie możesz dodawać załączników
  • Nie możesz edytować swoich postów
  •