Aktualizacje seriali
 



Ogłoszenia
UFS - dotacje
Dotacje SMS
Jak korzystać z forumowej szukajki



Pokaż wyniki od 1 do 2 z 2

Wątek: Wisin - Adrenalina ft. Jennifer Lopez, Ricky Martin [2014][WEBRip][1080p][ESP]

  1. #1
    Retired Awatar ZielonY
     Info : 
    Dołączył
    Dec 2013
    Skąd
    ja to znam?
    Posty
    7,742
     Podziękowania : 
    Podziękował: 3,103
    Doceniono: 13,577 razy w 267 postach
     UFS Stats Uploady : 
    Filmy: 144
    Gry: 9
    Programy: 1
    TV's: 19
    Muzyka: 13
    Porno: 2
    Małe uploady: 1
     UFS Stats Konta : 
    Gmail: 28
    Inne: 167
     Total Upload : 
    P2M UP: 1030.38 GB
     Total CA : 
    Total CA: 6695 AC
    ZielonY jest nieaktywny

    m4ud Wisin - Adrenalina ft. Jennifer Lopez, Ricky Martin [2014][WEBRip][1080p][ESP]

    Wisin - Adrenalina ft. Jennifer Lopez, Ricky Martin



    Wykonawca: Wisin
    Gatunek: POP
    Premiera: 2014
    Wytwórnia: Puerto Rican
    Łączny czas: 4:28







    Video
    ID : 1
    Format : AVC
    Format/Info : Advanced Video Codec
    Format profile : High@L4.0
    Format settings, CABAC : Yes
    Format settings, ReFrames : 2 frames
    Codec ID : avc1
    Codec ID/Info : Advanced Video Coding
    Duration : 4mn 27s
    Bit rate : 4 079 Kbps
    Width : 1 920 pixels
    Height : 1 080 pixels
    Display aspect ratio : 16:9
    Frame rate mode : Variable
    Frame rate : 23.976 fps
    Minimum frame rate : 23.974 fps
    Maximum frame rate : 24.543 fps
    Color space : YUV
    Chroma subsampling : 4:2:0
    Bit depth : 8 bits
    Scan type : Progressive
    Bits/(Pixel*Frame) : 0.082
    Stream size : 130 MiB (97%)

    Audio
    ID : 2
    Format : AAC
    Format/Info : Advanced Audio Codec
    Format profile : LC
    Codec ID : 40
    Duration : 4mn 27s
    Bit rate mode : Constant
    Bit rate : 126 Kbps
    Channel(s) : 2 channels
    Channel positions : Front: L R
    Sampling rate : 44.1 KHz
    Compression mode : Lossy
    Stream size : 4.01 MiB (3%)



    Nazwa pliku: Wisin - Adrenalina ft. Jennifer Lopez, Ricky Martin JPatryk dla UFS.PT.rar
    Rozmiar uploadu: 161 MB
    Rozmiar segmentu: 8 MB
    Ilość segmentów: 21
    Liczba mirrorów: 4
    Uploader: JPatryk
    Upload dla: UFS.PT
    Hasło: www.ufs.pt

    Masz problem z programem M4UDownloader? Zajrzyj do działu Poradniki & FAQ tego programu.






    Przepraszamy, ale nie możesz zobaczyć tego tematu. Musisz sie Zarejestrować
    albo Zalogować

    Upload zawiera 10% danych naprawczych!
    Jak korzystać z danych naprawczych? Tutaj znajdziesz poradnik!
    Ostatnio edytowane przez ZielonY ; 06-03-2014 o 17:29 Powód: poprawione :)

    Member > Full Member > UFS Trial > UFS Uploader > Super Uploader > UFS Elite > Super Vip > UFS Elite >Moderator > Super Moderator > Retired

  2. Liczba osób które doceniły autora: 2


  3.    Sponsored Links




  4. #2
    Retired
     Info : 
    Dołączył
    Nov 2008
    Posty
    4,218
     Podziękowania : 
    Podziękował: 377
    Doceniono: 981 razy w 85 postach
     UFS Stats Uploady : 
    Filmy: 77.5
    Gry: 9
    Programy: 4
    TV's: 142
     Total Upload : 
    P2M UP: 812.8 GB
    Diller81 jest nieaktywny

    Domyślnie


    Ostatnio edytowane przez Diller81 ; 07-03-2014 o 09:00

Informacje o wątku

Użytkownicy przeglądający ten wątek

Aktualnie 1 użytkownik(ów) przegląda ten wątek. (0 zarejestrowany(ch) oraz 1 gości)

Uprawnienia umieszczania postów

  • Nie możesz zakładać nowych tematów
  • Nie możesz pisać wiadomości
  • Nie możesz dodawać załączników
  • Nie możesz edytować swoich postów
  •