Aktualizacje seriali
 



Ogłoszenia
UFS - dotacje
Dotacje SMS
Jak korzystać z forumowej szukajki



Pokaż wyniki od 1 do 2 z 2

Wątek: Agents of S.H.I.E.L.D. [SEZON 1][2013][HDTV][720p][ENG]

  1. #1
    Awatar JRK
     Info : 
    Dołączył
    Nov 2007
    Posty
    7,425
     Podziękowania : 
    Podziękował: 2,541
    Doceniono: 16,699 razy w 516 postach
     UFS Stats Uploady : 
    Filmy: 438
    Gry: 51
    Programy: 41
    TV's: 6
    Muzyka: 40
    Inne: 15
    Małe uploady: 1
     UFS Stats Konta : 
    Gmail: 79
    Inne: 177
     Total Upload : 
    P2M UP: 2723.7 GB
     Total CA : 
    Total CA: 8275 AC
    JRK jest nieaktywny

    m4ud Agents of S.H.I.E.L.D. [SEZON 1][2013][HDTV][720p][ENG]

    Agents of S.H.I.E.L.D. (2013)


    Produkcja: USA
    Gatunek: Akcja, Sci-Fi, Dramat
    Reżyseria: Joss Whedon
    Scenariusz: Joss Whedon (również) (twórca), Jed Whedon (również) (twórca)

    Więcej informacji: http://fdb.pl/film/495338-agents-of-s-h-i-e-l-d


    Agent Phil Coulson (Clark Gregg) zbiera grupę najlepiej wykwalifikowanych pracowników agencji S.H.I.E.L.D., organu ścigania zajmującego się obroną świata przed istotami o nadprzyrodzonych mocach, aby wykonywać zadania ściśle tajne, które bezpośrednio zagrażają życiu cywilów. W skład zespołu wchodzi: Grant Ward (Brett Dalton), wysoko wyszkolony agent do pracy w terenie; Melinda May (Ming-Na Wen), znająca sztuki walki ekspertka ds. transportu; Leo Fitz (Iain De Caestecker), błyskotliwy inżynier oraz Jemma Simmons (Elizabeth Henstridge), genialna biochemiczka. Do drużyny dołącza także hakerka, Skye (Chloe Bennet), która do tej pory była zagorzałą przeciwniczką działalności S.H.I.E.L.D. (Beznickowy)


    Clark Gregg - Phil Coulson(1 odcinek, 2013)Ming-Na Wen - Melinda May(1 odcinek, 2013)Brett Dalton - Grant Ward(1 odcinek, 2013)Chloe Bennet - Skye(1 odcinek, 2013)Iain De Caestecker - Leo Fitz(1 odcinek, 2013)Elizabeth Henstridge - Jemma Simmons(1 odcinek, 2013)J. August Richards - Mike Peterson(1 odcinek, 2013)Shannon Lucio - Debbie(1 odcinek, 2013)








    Hasło do scalenia: www.mail4us.pl

    NFO:
    NFO:
    Dla E1
    General

    Format : Matroska
    Format version : Version 2
    File size : 865 MiB
    Duration : 43mn 1s
    Overall bit rate : 2 811 Kbps
    Encoded date : UTC 2013-09-23 20:23:13
    Writing application : mkvmerge v3.1.0 ('Happy up here') built on Jan 19 2010 12:09:24
    Writing library : libebml v0.7.9 + libmatroska v0.8.1

    Video
    ID : 1
    Format : AVC
    Format/Info : Advanced Video Codec
    Format profile : High@L4.1
    Format settings, CABAC : Yes
    Format settings, ReFrames : 8 frames
    Codec ID : V_MPEG4/ISO/AVC
    Duration : 43mn 1s
    Bit rate : 2 371 Kbps
    Width : 1 280 pixels
    Height : 720 pixels
    Display aspect ratio : 16:9
    Frame rate mode : Constant
    Frame rate : 23.976 fps
    Color space : YUV
    Chroma subsampling : 4:2:0
    Bit depth : 8 bits
    Scan type : Progressive
    Bits/(Pixel*Frame) : 0.107
    Stream size : 730 MiB (84%)
    Language : English
    Default : No
    Forced : No

    Audio
    ID : 2
    Format : AC-3
    Format/Info : Audio Coding 3
    Mode extension : CM (complete main)
    Format settings, Endianness : Big
    Codec ID : A_AC3
    Duration : 43mn 1s
    Bit rate mode : Constant
    Bit rate : 384 Kbps
    Channel(s) : 2 channels
    Channel positions : Front: L R
    Sampling rate : 48.0 KHz
    Bit depth : 16 bits
    Compression mode : Lossy
    Delay relative to video : 64ms
    Stream size : 118 MiB (14%)
    Default : Yes
    Forced : No


    Podziękowania za konta:
    Martin







    Przepraszamy, ale nie możesz zobaczyć tego tematu. Musisz sie Zarejestrować
    albo Zalogować

    Ostatnio edytowane przez Look ; 18-01-2014 o 11:25

  2. Liczba osób które doceniły autora: 6


  3.    Sponsored Links




  4. #2
    Retired Awatar Look
     Info : 
    Dołączył
    Jan 2008
    Posty
    4,495
     Podziękowania : 
    Podziękował: 922
    Doceniono: 20,527 razy w 334 postach
     UFS Stats Uploady : 
    Filmy: 595
    Gry: 59
    Programy: 1
    TV's: 72
    Muzyka: 13
    Porno: 1
    Inne: 4
     UFS Stats Konta : 
    Gmail: 172
    Inne: 121
     Total Upload : 
    P2M UP: 2456.2 GB
     Total CA : 
    Total CA: 8670 AC
    Look jest nieaktywny

    Domyślnie



    MEMBER > FULL MEMBER > UFS TRIAL > KREATOR > FULL MEMBER > UFS TRIAL > UPLOADER > SUPER UPLOADER > UFS ELITE>MODERATOR>


    +


Informacje o wątku

Użytkownicy przeglądający ten wątek

Aktualnie 1 użytkownik(ów) przegląda ten wątek. (0 zarejestrowany(ch) oraz 1 gości)

Podobne wątki

  1. 1GB Castle [SEZON 6][2013][HDTV][720p][ENG]
    Przez d3 w dziale Pełne Sezony [Dział od rangi Full Member]
    Odpowiedzi: 1
    Ostatni post / autor: 04-10-2013, 11:58

Uprawnienia umieszczania postów

  • Nie możesz zakładać nowych tematów
  • Nie możesz pisać wiadomości
  • Nie możesz dodawać załączników
  • Nie możesz edytować swoich postów
  •