Aktualizacje seriali
 



Ogłoszenia
UFS - dotacje
Dotacje SMS
Jak korzystać z forumowej szukajki



Pokaż wyniki od 1 do 2 z 2

Wątek: Melissa & Joey [Sezon 2][2010][HDTV][x264][ENG]

  1. #1
    Retired
     Info : 
    Dołączył
    Jul 2009
    Posty
    1,285
     Podziękowania : 
    Podziękował: 0
    Doceniono: 340 razy w 44 postach
     UFS Stats Uploady : 
     UFS Stats Konta : 
     Total Upload : 
    P2M UP: 1322 GB
     Total CA : 
    Total CA: 1970 AC
    Tei jest nieaktywny

    m4ud Melissa & Joey [Sezon 2][2010][HDTV][x264][ENG]

    Melissa & Joey (2010)


    Produkcja: USA
    Gatunek: Komedia
    Data Premiery: 2010-08-17 (świat)
    Reżyseria: Ted Wass
    Scenariusz: David Kendall (również) (twórca), Bob Young (również) (twórca)
    Czas trwania: odc.: 30 minut

    Więcej informacji: http://fdb.pl/film/256690-melissa-and-joey


    Melissa Burke (Melissa Joan Hart) poszła w ślady swoich rodziców i jest politykiem. Po tym jak jej siostra poszła do więzienia, a szwagier ukrył się po skandalu, bierze pod opiekę dwóch bratanków. Lecz z braku czasu i rodzicielskiego doświadczenia Melissa najmuje nianię, która na imię Joe (Joseph Lawrence). Nikt nie wiedział, że Joe to nie tylko żeńskie imię… (tompawel)


    Melissa Joan Hart - Melissa Burke(2 odcinki, 2010)Joseph Lawrence - Joe Longo(2 odcinki, 2010)Taylor Spreitler - Lennox Scanlon(2 odcinki, 2010)Nick Robinson - Ryder Scanlon(2 odcinki, 2010)Elizabeth Ho - Rhonda Cheng(2 odcinki, 2010)Don Stark - Phil DeMarco(1 odcinek, 2010)Philipp Karner - Theo Morton(1 odcinek, 2010)Vernee Watson-Johnson - Pani Lunt(1 odcinek, 2010)







    General
    Format : MPEG-4
    Format profile : Base Media
    Codec ID : isom
    File size : 180 MiB
    Duration : 21mn 35s
    Overall bit rate mode : Variable
    Overall bit rate : 1 166 Kbps
    Encoded date : UTC 2011-09-08 11:43:25
    Tagged date : UTC 2011-09-08 11:43:25

    Video
    ID : 1
    Format : AVC
    Format/Info : Advanced Video Codec
    Format profile : High@L3.1
    Format settings, CABAC : Yes
    Format settings, ReFrames : 5 frames
    Codec ID : avc1
    Codec ID/Info : Advanced Video Coding
    Duration : 21mn 35s
    Bit rate : 1 011 Kbps
    Width : 720 pixels
    Height : 404 pixels
    Display aspect ratio : 16:9
    Frame rate mode : Constant
    Frame rate : 23.976 fps
    Color space : YUV
    Chroma subsampling : 4:2:0
    Bit depth : 8 bits
    Scan type : Progressive
    Bits/(Pixel*Frame) : 0.145
    Stream size : 156 MiB (87%)
    Writing library : x264 core 125 r2200 999b753
    Encoding settings : cabac=1 / ref=5 / deblock=1:0:0 / analyse=0x3:0x113 / me=umh / subme=8 / psy=1 / psy_rd=1.00:0.00 / mixed_ref=1 / me_range=16 / chroma_me=1 / trellis=1 / 8x8dct=1 / cqm=0 / deadzone=21,11 / fast_pskip=1 / chroma_qp_offset=-2 / threads=18 / lookahead_threads=3 / sliced_threads=0 / nr=0 / decimate=1 / interlaced=0 / bluray_compat=0 / constrained_intra=0 / bframes=3 / b_pyramid=2 / b_adapt=2 / b_bias=0 / direct=3 / weightb=1 / open_gop=0 / weightp=2 / keyint=250 / keyint_min=23 / scenecut=40 / intra_refresh=0 / rc_lookahead=50 / rc=crf / mbtree=1 / crf=19.0 / qcomp=0.60 / qpmin=0 / qpmax=69 / qpstep=4 / ip_ratio=1.40 / aq=1:1.00
    Encoded date : UTC 2011-09-08 11:43:25
    Tagged date : UTC 2011-09-08 11:43:25
    Matrix coefficients : BT.709-5, BT.1361, IEC 61966-2-4 709, SMPTE RP177

    Audio
    ID : 2
    Format : AAC
    Format/Info : Advanced Audio Codec
    Format profile : LC
    Codec ID : 40
    Duration : 21mn 35s
    Bit rate mode : Variable
    Bit rate : 149 Kbps
    Maximum bit rate : 176 Kbps
    Channel(s) : 2 channels
    Channel positions : Front: L R
    Sampling rate : 48.0 KHz
    Compression mode : Lossy
    Delay relative to video : -3s 337ms
    Stream size : 23.0 MiB (13%)
    Encoded date : UTC 2011-09-08 11:43:25
    Tagged date : UTC 2011-09-08 11:43:25




    Nazwa uploadu: Melissa.and.Joey.S02E01-E02.HDTV.x264-ASAP
    Nazwa pliku: Melissa.and.Joey.S02E01-E02.HDTV.x264-ASAP.mp4
    Rozmiar uploadu: 180 MB
    Ilość segmentów: 23
    Rozmiar segmentu: 8 MB
    Liczba mirrorów: 4

    Nazwa uploadu: Melissa.and.Joey.S02E02.HDTV.x264-ASAP
    Nazwa pliku: Melissa.and.Joey.S02E02.HDTV.x264-ASAP.mp4
    Rozmiar uploadu: 180 MB
    Ilość segmentów: 23
    Rozmiar segmentu: 8 MB
    Liczba mirrorów: 4

    Nazwa uploadu: Melissa.and.Joey.S02E03.HDTV.x264-ASAP
    Nazwa pliku: Melissa.and.Joey.S02E03.HDTV.x264-ASAP.mp4
    Rozmiar uploadu: 176 MB
    Ilość segmentów: 23
    Rozmiar segmentu: 8 MB
    Liczba mirrorów: 4

    Nazwa uploadu: Melissa.and.Joey.S02E04.HDTV.x264-ASAP
    Nazwa pliku: Melissa.and.Joey.S02E04.HDTV.x264-ASAP.mp4
    Rozmiar uploadu: 180 MB
    Ilość segmentów: 23
    Rozmiar segmentu: 8 MB
    Liczba mirrorów: 4

    Nazwa uploadu: Melissa.and.Joey.S02E06.HDTV.x264-ASAP
    Nazwa pliku: Melissa.and.Joey.S02E06.HDTV.x264-ASAP.mp4
    Rozmiar uploadu: 197 MB
    Ilość segmentów: 25
    Rozmiar segmentu: 8 MB
    Liczba mirrorów: 4

    Nazwa uploadu: Melissa.and.Joey.S02E07.HDTV.x264-ASAP
    Nazwa pliku: Melissa.and.Joey.S02E07.HDTV.x264-ASAP.mp4
    Rozmiar uploadu: 182 MB
    Ilość segmentów: 23
    Rozmiar segmentu: 8 MB
    Liczba mirrorów: 4

    Nazwa uploadu: Melissa.and.Joey.S02E11.HDTV.x264-EVOLVE
    Nazwa pliku: Melissa.and.Joey.S02E11.HDTV.x264-EVOLVE.mp4
    Rozmiar uploadu: 176 MB
    Ilość segmentów: 23
    Rozmiar segmentu: 8 MB
    Liczba mirrorów: 4

    Nazwa uploadu: Melissa.and.Joey.S02E12.HDTV.x264-ASAP
    Nazwa pliku: Melissa.and.Joey.S02E12.HDTV.x264-ASAP.mp4
    Rozmiar uploadu: 186 MB
    Ilość segmentów: 24
    Rozmiar segmentu: 8 MB
    Liczba mirrorów: 4

    Nazwa uploadu: Melissa.and.Joey.S02E13.HDTV.x264-ASAP
    Nazwa pliku: Melissa.and.Joey.S02E13.HDTV.x264-ASAP.mp4
    Rozmiar uploadu: 173 MB
    Ilość segmentów: 22
    Rozmiar segmentu: 8 MB
    Liczba mirrorów: 4

    Nazwa uploadu: Melissa.and.Joey.S02E14.HDTV.x264-ASAP
    Nazwa pliku: Melissa.and.Joey.S02E14.HDTV.x264-ASAP.mp4
    Rozmiar uploadu: 166 MB
    Ilość segmentów: 21
    Rozmiar segmentu: 8 MB
    Liczba mirrorów: 4

    Nazwa uploadu: Melissa.and.Joey.S02E15.HDTV.x264-ASAP
    Nazwa pliku: Melissa.and.Joey.S02E15.HDTV.x264-ASAP.mp4
    Rozmiar uploadu: 168 MB
    Ilość segmentów: 22
    Rozmiar segmentu: 8 MB
    Liczba mirrorów: 4
    Hasło do scalenia: www.mail4us.pl






    Przepraszamy, ale nie możesz zobaczyć tego tematu. Musisz sie Zarejestrować
    albo Zalogować

    Ostatnio edytowane przez Zarazek ; 29-08-2014 o 20:13




  2.    Sponsored Links




  3. #2
    piotrex
    Guest
     Podziękowania : 

    Domyślnie

    Ostatnio edytowane przez Zarazek ; 29-08-2014 o 20:08

Informacje o wątku

Użytkownicy przeglądający ten wątek

Aktualnie 1 użytkownik(ów) przegląda ten wątek. (0 zarejestrowany(ch) oraz 1 gości)

Podobne wątki

  1. 4GB Joey [SEZON 1][2004][TVRip][LEK-PL]
    Przez Jarrett w dziale Pełne Sezony [Dział od rangi Full Member]
    Odpowiedzi: 1
    Ostatni post / autor: 09-03-2014, 12:46
  2. 4GB Joey [SEZON 2][2005][TVRip][LEK-PL]
    Przez Jarrett w dziale Pełne Sezony [Dział od rangi Full Member]
    Odpowiedzi: 1
    Ostatni post / autor: 09-03-2014, 12:44
  3. 5GB Melissa & Joey [Sezon 1][2010][HDTV][ENG]
    Przez Tei w dziale Pełne Sezony [Dział od rangi Full Member]
    Odpowiedzi: 1
    Ostatni post / autor: 10-05-2013, 01:09
  4. 0.7GB Joey [Sezon 1][2004][TVRip][RMVB][Lek-PL]
    Przez pitbulpatryk w dziale Pełne Sezony [Dział od rangi Full Member]
    Odpowiedzi: 3
    Ostatni post / autor: 23-12-2009, 08:26

Uprawnienia umieszczania postów

  • Nie możesz zakładać nowych tematów
  • Nie możesz pisać wiadomości
  • Nie możesz dodawać załączników
  • Nie możesz edytować swoich postów
  •