Aktualizacje seriali
 



Ogłoszenia
UFS - dotacje
Dotacje SMS
Jak korzystać z forumowej szukajki



Pokaż wyniki od 1 do 2 z 2

Wątek: The Host [2013][WEBRip][ENG]

  1. #1
    Retired Awatar Liuk
     Info : 
    Dołączył
    Oct 2007
    Skąd
    nie w UE
    Posty
    1,780
     Podziękowania : 
    Podziękował: 239
    Doceniono: 6,305 razy w 228 postach
     UFS Stats Uploady : 
    Filmy: 128
    Gry: 80
    Programy: 1
    TV's: 13
    Muzyka: 36
    Porno: 294
    Inne: 1
     UFS Stats Konta : 
    Gmail: 15
    Inne: 18
     Total Upload : 
    P2M UP: 1101.4 GB
     Total CA : 
    Total CA: 310 AC
    Liuk jest nieaktywny

    m4ud The Host [2013][WEBRip][ENG]

    Intruz (2013)
    The Host


    Produkcja: USA
    Gatunek: Sci-Fi, Thriller, Akcja, Przygodowy, Romans
    Data Premiery: 2013-04-05 (kino), 2013-03-22 (świat)
    Reżyseria: Andrew Niccol
    Scenariusz: Andrew Niccol, Stephenie Meyer (powieść)
    Czas trwania: 125 minut

    Więcej informacji: http://fdb.pl/film/397238-intruz


    7/10 FDB


    Film opowiada o przetrwaniu siły miłości i ludzkiego ducha w czasach wojny. Nasz świat został zaatakowany przez niewidzialnego wroga. Ludzkie ciała stały się gospodarzami dla najeźdźców, którzy przejęli ich umysły. Ludzkość powoli zaczyna wymierać... (jacks)


    Saoirse Ronan - Melanie StryderMax Irons - Jared HoweJake Abel - Ian O'SheaDiane Kruger - PoszukiwaczkaWilliam Hurt - Jeb StryderFrances Fisher - Maggie StryderChandler Canterbury - Jamie StryderBoyd Holbrook - Kyle O'Shea







    Nazwa uploadu: The.Host.2013.Webrip Xvid Ac3 5.1-MiLLENiUM.part1
    Nazwa pliku: The.Host.2013.Webrip Xvid Ac3 5.1-MiLLENiUM.part1.rar
    Rozmiar uploadu: 1300 MB
    Rozmiar segmentu: 8 MB
    Ilość segmentów: 163
    Liczba mirrorów: 8

    Nazwa uploadu: The.Host.2013.Webrip Xvid Ac3 5.1-MiLLENiUM.part2
    Nazwa pliku: The.Host.2013.Webrip Xvid Ac3 5.1-MiLLENiUM.part2.rar
    Rozmiar uploadu: 922 MB
    Rozmiar segmentu: 8 MB
    Ilość segmentów: 116
    Liczba mirrorów: 8
    Hasło do scalenia: www.mail4us.pl

    NFO:
    NFO:
    General
    http://www.imdb.co.uk/title/tt1517260/
    Complete name : The.Host.2013.Webrip Xvid Ac3 5.1-MiLLENiUM.avi
    Source : The.Host.2013.720p.KOR.HDRip.H-KTH [thanks]
    Format : AVI
    Format/Info : Audio Video Interleave
    File size : 1.96 GiB
    Duration : 2h 10mn
    Overall bit rate : 2 152 Kbps
    Writing application : VirtualDubMod 1.5.10.2 (build 2540/release)
    Writing library : VirtualDubMod build 2540/release

    Video
    ID : 0
    Format : MPEG-4 Visual
    Format profile : Advanced Simple@L5
    Format settings, BVOP : 2
    Format settings, QPel : No
    Format settings, GMC : No warppoints
    Format settings, Matrix : Default (H.263)
    Muxing mode : Packed bitstream
    Codec ID : XVID
    Codec ID/Hint : XviD
    Duration : 2h 10mn
    Bit rate : 1 692 Kbps
    Width : 720 pixels
    Height : 278 pixels
    Display aspect ratio : 2.590
    Frame rate : 29.970 fps
    Color space : YUV
    Chroma subsampling : 4:2:0
    Bit depth : 8 bits
    Scan type : Progressive
    Compression mode : Lossy
    Bits/(Pixel*Frame) : 0.282
    Stream size : 1.54 GiB (79%)
    Writing library : XviD 1.2.1 (UTC 2008-12-04)

    Audio
    ID : 1
    Format : AC-3
    Format/Info : Audio Coding 3
    Mode extension : CM (complete main)
    Codec ID : 2000
    Duration : 2h 10mn
    Bit rate mode : Constant
    Bit rate : 448 Kbps
    Channel(s) : 6 channels
    Channel positions : Front: L C R, Side: L R, LFE
    Sampling rate : 48.0 KHz
    Bit depth : 16 bits
    Compression mode : Lossy
    Delay relative to video : 21ms
    Stream size : 418 MiB (21%)
    Alignment : Split accross interleaves
    Interleave, duration : 33 ms (1.00 video frame)
    Interleave, preload duration : 500 ms







    Przepraszamy, ale nie możesz zobaczyć tego tematu. Musisz sie Zarejestrować
    albo Zalogować

    Ostatnio edytowane przez Pumbek ; 09-12-2014 o 00:44

  2.    Sponsored Links




  3. #2
    CHELSEA LONDYN & BROOKLYN NETS <3 Awatar Pumbek
     Info : 
    Dołączył
    Jan 2007
    Skąd
    ZCH
    Posty
    4,349
     Podziękowania : 
    Podziękował: 796
    Doceniono: 24,754 razy w 540 postach
     UFS Stats Uploady : 
    Filmy: 568
    Gry: 201
    Programy: 17
    TV's: 167
    Muzyka: 70
    Porno: 15
    Inne: 7
    Małe uploady: 7
     UFS Stats Konta : 
    Gmail: 107
    Inne: 124
     Total Upload : 
    P2M UP: 4800.15 GB
     Total CA : 
    Total CA: 15070 AC
    Pumbek jest nieaktywny

    Domyślnie

    ..::Member -> Full Member -> UFS Trial -> UFS Kreator -> Full Member -> UFS Uploader -> Super Uploader -> UFS Elite -> SUPER VIP -> UFS Elite -> Moderator -> Super Moderator -> UFS MASTER ->Super Moderator ->Retired -> Super Moderator -> Retired ::..

Informacje o wątku

Użytkownicy przeglądający ten wątek

Aktualnie 1 użytkownik(ów) przegląda ten wątek. (0 zarejestrowany(ch) oraz 1 gości)

Podobne wątki

  1. 0.7GB The Host [2013][HDRip][ENG][Napisy PL]
    Przez raven w dziale HQ (High Quality - Wysoka Jakość)
    Odpowiedzi: 1
    Ostatni post / autor: 28-04-2013, 13:45

Uprawnienia umieszczania postów

  • Nie możesz zakładać nowych tematów
  • Nie możesz pisać wiadomości
  • Nie możesz dodawać załączników
  • Nie możesz edytować swoich postów
  •