Aktualizacje seriali
 



Ogłoszenia
UFS - dotacje
Dotacje SMS
Jak korzystać z forumowej szukajki



Pokaż wyniki od 1 do 2 z 2

Wątek: American Hustle [2013][DVDscr][ENG]

  1. #1
    .::dEpeChe mOde::. Awatar DM
     Info : 
    Dołączył
    Mar 2008
    Skąd
    Klucze
    Posty
    2,583
     Podziękowania : 
    Podziękował: 666
    Doceniono: 40,361 razy w 269 postach
     UFS Stats Uploady : 
    Filmy: 347
    Gry: 16
    Programy: 1
    TV's: 43
    Muzyka: 3
    Porno: 7
    Inne: 9
     UFS Stats Konta : 
    Gmail: 36
    Inne: 79
     Total Upload : 
    P2M UP: 1723.92 GB
     Total CA : 
    Total CA: 1275 AC
    DM jest nieaktywny

    m4ud American Hustle [2013][DVDscr][ENG]

    American Hustle (2013)
    American Hustle


    Produkcja: USA
    Gatunek: Dramat, Kryminał, Komedia
    Data Premiery: 2014-02-14 (kino), 2013-12-13 (świat)
    Reżyseria: David O. Russell
    Scenariusz: Eric Singer, David O. Russell
    Czas trwania: 138 minut

    Więcej informacji: http://fdb.pl/film/511025-american-hustle
    Napisy: n/a


    6/10 FDB


    Film opowiada historię błyskotliwego oszusta Irvinga Rosenfelda (Christian Bale), który wraz z partnerką i kochanką, brytyjką Sydney Prosser (Amy Adams) zostaje zmuszony do pracy dla niezrównoważonego agenta FBI Richiego DiMaso (Bradley Cooper). DiMaso wciąga parę w równie niebezpieczny, co pociągający świat wpływowych lobbystów i mafii. W rolę zapalczywego Carmine Polito, polityka z New Jersey tkwiącego w samym środku działań prowadzonych przez oszustów i agentów federalnych, wciela się Jeremy Renner, a jako nieprzewidywalną żonę Irvinga, Rosalyn, zobaczymy na ekranie Jennifer Lawrence. I to właśnie Rosalyn może być osobą, która sprawi, że cały świat władzy runie jak domek z kart. (opis dystrybutora)


    Christian Bale - Irving RosenfeldBradley Cooper - Richie DiMasoAmy Adams - Sydney ProsserJeremy Renner - Carmine PolitoJennifer Lawrence - Rosalyn RosenfeldLouis C.K. - Stoddard ThorsenJack Huston - Pete MusaneMichael Pe~na - Paco Hernandez / Szejk Abdullah






    Trailer



    Nazwa uploadu: American.Hustle.2013.DVDScr.XVID.AC3.HQ.Hive-CM8
    Nazwa pliku: American.Hustle.2013.DVDScr.XVID.AC3.HQ.Hive-CM8.avi
    Rozmiar uploadu: 1585
    Rozmiar segmentu: 8 MB
    Ilość segmentów: 199
    Liczba mirrorów: 7
    Hasło do scalenia: www.mail4us.pl

    NFO:
    NFO:
    Video
    ID : 0
    Format : MPEG-4 Visual
    Format profile : Advanced Simple@L5
    Format settings, BVOP : 2
    Format settings, QPel : Yes
    Format settings, GMC : No warppoints
    Format settings, Matrix : Default (H.263)
    Muxing mode : Packed bitstream
    Codec ID : XVID
    Codec ID/Hint : XviD
    Duration : 2h 13mn
    Bit rate : 1 399 Kbps
    Width : 720 pixels
    Height : 304 pixels
    Display aspect ratio : 2.35:1
    Frame rate : 23.976 fps
    Color space : YUV
    Chroma subsampling : 4:2:0
    Bit depth : 8 bits
    Scan type : Progressive
    Compression mode : Lossy
    Bits/(Pixel*Frame) : 0.267
    Stream size : 1.30 GiB (84%)
    Writing library : XviD 1.2.1 (UTC 2008-12-04)

    Audio
    ID : 1
    Format : AC-3
    Format/Info : Audio Coding 3
    Mode extension : CM (complete main)
    Format settings, Endianness : Big
    Codec ID : 2000
    Duration : 2h 13mn
    Bit rate mode : Constant
    Bit rate : 256 Kbps
    Channel(s) : 2 channels
    Channel positions : Front: L R
    Sampling rate : 48.0 KHz
    Bit depth : 16 bits
    Compression mode : Lossy
    Stream size : 244 MiB (15%)
    Alignment : Split accross interleaves
    Interleave, duration : 42 ms (1.00 video frame)
    Interleave, preload duration : 500 ms


    Podziękowania za konta:
    JRK







    Przepraszamy, ale nie możesz zobaczyć tego tematu. Musisz sie Zarejestrować
    albo Zalogować

    Ostatnio edytowane przez Look ; 17-01-2014 o 12:45

  2. Liczba osób które doceniły autora: 5


  3.    Sponsored Links




  4. #2
    Awatar JRK
     Info : 
    Dołączył
    Nov 2007
    Posty
    7,425
     Podziękowania : 
    Podziękował: 2,541
    Doceniono: 16,698 razy w 516 postach
     UFS Stats Uploady : 
    Filmy: 438
    Gry: 51
    Programy: 41
    TV's: 6
    Muzyka: 40
    Inne: 15
    Małe uploady: 1
     UFS Stats Konta : 
    Gmail: 79
    Inne: 177
     Total Upload : 
    P2M UP: 2723.7 GB
     Total CA : 
    Total CA: 8275 AC
    JRK jest nieaktywny

    Domyślnie

    Ostatnio edytowane przez Look ; 17-01-2014 o 12:45

Informacje o wątku

Użytkownicy przeglądający ten wątek

Aktualnie 1 użytkownik(ów) przegląda ten wątek. (0 zarejestrowany(ch) oraz 1 gości)

Podobne wątki

  1. 0.7GB American Hustle [2013][BRRip][ENG][Napisy PL]
    Przez Szatan w dziale HQ (High Quality - Wysoka Jakość)
    Odpowiedzi: 1
    Ostatni post / autor: 03-03-2014, 18:32

Uprawnienia umieszczania postów

  • Nie możesz zakładać nowych tematów
  • Nie możesz pisać wiadomości
  • Nie możesz dodawać załączników
  • Nie możesz edytować swoich postów
  •