Aktualizacje seriali
 



Ogłoszenia
UFS - dotacje
Dotacje SMS
Jak korzystać z forumowej szukajki



Pokaż wyniki od 1 do 2 z 2

Wątek: Dallas Buyers Club [2013][DVDscr][ENG]

  1. #1
    .::dEpeChe mOde::. Awatar DM
     Info : 
    Dołączył
    Mar 2008
    Skąd
    Klucze
    Posty
    2,584
     Podziękowania : 
    Podziękował: 667
    Doceniono: 40,376 razy w 269 postach
     UFS Stats Uploady : 
    Filmy: 347
    Gry: 16
    Programy: 1
    TV's: 43
    Muzyka: 3
    Porno: 7
    Inne: 9
     UFS Stats Konta : 
    Gmail: 36
    Inne: 79
     Total Upload : 
    P2M UP: 1723.92 GB
     Total CA : 
    Total CA: 1275 AC
    DM jest nieaktywny

    m4ud Dallas Buyers Club [2013][DVDscr][ENG]

    Witaj w klubie (2013)
    Dallas Buyers Club


    Produkcja: USA
    Gatunek: Dramat
    Data Premiery: 2014-03-14 (kino), 2013-09-07 (świat)
    Reżyseria: Jean-Marc Vallée
    Scenariusz: Craig Borten, Melissa Wallack
    Czas trwania: 117 minut

    Więcej informacji: http://fdb.pl/film/3830-witaj-w-klubie
    Napisy: n/a


    8/10 FDB


    Ron żyje z dnia na dzień. Pali jak smok, lubi bourbon, kobiety i rodeo. Nic ponad szybkie i proste przyjemności. Wiadomość o tym, że jest nosicielem wirusa HIV to dla niego szokujący wyrok, z którym nie chce się pogodzić. Jedzie do Meksyku, z którego zamierza szmuglować zakazane w USA leki. Po powrocie niespodziewanie zdobywa sojusznika w osobie queerowego transseksualisty Rayona. Ten pozornie niedobrany duet wspólnie zaczyna prowadzić klub, w którym inni szukają ratunku. Ron to człowiek daleki od ideału, jednak z ogromną siłą charakteru. (opis dystrybutora)


    Matthew McConaughey - Ron WoodroofJennifer Garner - Dr Eve SaksJared Leto - RayonSteve ZahnDallas Roberts - David WayneKevin Rankin - T.jDenis O'HareJane McNeill - Francine Suskind






    Trailer



    Nazwa uploadu: Dallas.Buyers.Club.2013.DVDScr.XVID.AC3.HQ.Hive-CM8
    Nazwa pliku: Dallas.Buyers.Club.2013.DVDScr.XVID.AC3.HQ.Hive-CM8.avi
    Rozmiar uploadu: 1721
    Rozmiar segmentu: 8 MB
    Ilość segmentów: 216
    Liczba mirrorów: 6
    Hasło do scalenia: www.mail4us.pl

    NFO:
    NFO:
    Video
    ID : 0
    Format : MPEG-4 Visual
    Format profile : Advanced Simple@L5
    Format settings, BVOP : 2
    Format settings, QPel : Yes
    Format settings, GMC : No warppoints
    Format settings, Matrix : Default (H.263)
    Muxing mode : Packed bitstream
    Codec ID : XVID x264 will not save you
    Codec ID/Hint : XviD
    Duration : 1h 56mn
    Bit rate : 1 600 Kbps
    Width : 720 pixels
    Height : 304 pixels
    Display aspect ratio : 2.35:1
    Frame rate : 23.976 fps
    Color space : YUV
    Chroma subsampling : 4:2:0
    Bit depth : 8 bits
    Scan type : Progressive
    Compression mode : Lossy
    Bits/(Pixel*Frame) : 0.305
    Stream size : 1.31 GiB (78%)
    Writing library : XviD 1.2.1 (UTC 2008-12-04)

    Audio
    ID : 1
    Format : AC-3
    Format/Info : Audio Coding 3
    Mode extension : CM (complete main)
    Format settings, Endianness : Big
    Codec ID : 2000
    Duration : 1h 56mn
    Bit rate mode : Constant
    Bit rate : 448 Kbps
    Channel(s) : 6 channels
    Channel positions : Front: L C R, Side: L R, LFE
    Sampling rate : 48.0 KHz
    Bit depth : 16 bits
    Compression mode : Lossy
    Delay relative to video : 26ms
    Stream size : 375 MiB (22%)
    Alignment : Split accross interleaves
    Interleave, duration : 42 ms (1.00 video frame)
    Interleave, preload duration : 500 ms


    Podziękowania za konta:
    JRK







    Przepraszamy, ale nie możesz zobaczyć tego tematu. Musisz sie Zarejestrować
    albo Zalogować

    Ostatnio edytowane przez Look ; 17-01-2014 o 12:46

  2. Liczba osób które doceniły autora: 1


  3.    Sponsored Links




  4. #2
    Awatar JRK
     Info : 
    Dołączył
    Nov 2007
    Posty
    7,425
     Podziękowania : 
    Podziękował: 2,541
    Doceniono: 16,715 razy w 517 postach
     UFS Stats Uploady : 
    Filmy: 438
    Gry: 51
    Programy: 41
    TV's: 6
    Muzyka: 40
    Inne: 15
    Małe uploady: 1
     UFS Stats Konta : 
    Gmail: 79
    Inne: 177
     Total Upload : 
    P2M UP: 2723.7 GB
     Total CA : 
    Total CA: 8275 AC
    JRK jest nieaktywny

    Domyślnie

    Ostatnio edytowane przez Look ; 17-01-2014 o 12:46

Informacje o wątku

Użytkownicy przeglądający ten wątek

Aktualnie 1 użytkownik(ów) przegląda ten wątek. (0 zarejestrowany(ch) oraz 1 gości)

Uprawnienia umieszczania postów

  • Nie możesz zakładać nowych tematów
  • Nie możesz pisać wiadomości
  • Nie możesz dodawać załączników
  • Nie możesz edytować swoich postów
  •