Aktualizacje seriali
 



Ogłoszenia
UFS - dotacje
Dotacje SMS
Jak korzystać z forumowej szukajki



Pokaż wyniki od 1 do 2 z 2

Wątek: Gravity [2013][DVDscr][AC3][ENG]

  1. #1
    Retired Awatar Liuk
     Info : 
    Dołączył
    Oct 2007
    Skąd
    nie w UE
    Posty
    1,780
     Podziękowania : 
    Podziękował: 239
    Doceniono: 6,305 razy w 228 postach
     UFS Stats Uploady : 
    Filmy: 128
    Gry: 80
    Programy: 1
    TV's: 13
    Muzyka: 36
    Porno: 294
    Inne: 1
     UFS Stats Konta : 
    Gmail: 15
    Inne: 18
     Total Upload : 
    P2M UP: 1101.4 GB
     Total CA : 
    Total CA: 310 AC
    Liuk jest nieaktywny

    m4ud Gravity [2013][DVDscr][AC3][ENG]

    Grawitacja (2013)
    Gravity


    Produkcja: USA | Wielka Brytania
    Gatunek: Sci-Fi, Thriller, Dramat
    Data Premiery: 2013-10-11 (kino), 2013-08-28 (świat)
    Reżyseria: Alfonso Cuarón
    Scenariusz: Alfonso Cuarón, Jonás Cuarón
    Czas trwania: 90 minut

    Więcej informacji: http://fdb.pl/film/252308-grawitacja


    7/10 FDB


    Dr Ryan Stone (Sandra Bullock) jest znakomitym inżynierem medycznym, wraz z astronautą-weteranem Mattem Kowalskim (George Clooney) odbywającym swoją pierwszą misję na statku kosmicznym. Niestety, w czasie pozornie rutynowego spaceru w przestrzeni kosmicznej następuje katastrofa. Statek zostaje zniszczony, pozostawiając Stone i Kowalskiego zupełnie samych - przywiązanych jedynie do siebie, krążących w ciemności. Ogłuszająca cisza mówi, że utracili wszelki kontakt z Ziemią… i jakąkolwiek szansę na ratunek. Strach zamienia się w panikę, każdy oddech pomniejsza i tak niewielką ilość tlenu, jaka im pozostała. A jedyną drogą do domu może okazać się jeszcze większe pogrążenie się w przerażającej nieskończoności kosmosu.(opis dystrybutora)


    Sandra Bullock - Dr Ryan StoneGeorge Clooney - Matt KowalskyEd Harris - Dyrektor kontroli misji(głos)Orto Ignatiussen - Aningaaq(głos)Paul Sharma - Shariff(głos)Amy Warren - Kapitan sondy badawczej(głos)Basher Savage - Kapitan rosyjskiej stacji kasmicznej(głos)






    Trailer



    Nazwa uploadu: Gravity 2013 DVDSCR XVID AC3-MiLLENiUM
    Nazwa pliku: Gravity 2013 DVDSCR XVID AC3-MiLLENiUM.avi
    Rozmiar uploadu: 1368 MB
    Rozmiar segmentu: 7 MB
    IloSC segmentów: 196
    Liczba mirrorów: 10
    Hasło do scalenia: www.mail4us.pl

    NFO:
    NFO:
    Complete name: Gravity 2013 DVDSCR XVID AC3-MiLLENiUM.avi
    source: THANKS BRO
    Format: AVI
    Format/Info: Audio Video Interleave
    File size: 1.34 GiB
    Duration: 1h 30mn
    Overall bit rate: 2 104 Kbps
    Writing application: VirtualDubMod 1.5.10.2 (build 2540/release)
    Writing library: VirtualDubMod build 2540/release
    ID: 0
    Format: MPEG-4 Visual
    Format profile: Advanced Simple@L5
    Format settings, BVOP: 2
    Format settings, QPel: No
    Format settings, GMC: No warppoints
    Format settings, Matrix: Default (H.263)
    Muxing mode: Packed bitstream
    Codec ID: XVID
    Codec ID/Hint: XviD
    Duration: 1h 30mn
    Bit rate: 1 711 Kbps
    Width: 720 pixels
    Height: 304 pixels
    Display aspect ratio: 2.35:1
    Frame rate: 23.976 fps
    Color space: YUV
    Chroma subsampling: 4:2:0
    Bit depth: 8 bits
    Scan type: Progressive
    Compression mode: Lossy
    Bits/(Pixel*Frame): 0.326
    Stream size: 1.09 GiB (81%)
    Writing library: XviD 64
    ID: 1
    Format: AC-3
    Format/Info: Audio Coding 3
    Mode extension: CM (complete main)
    Codec ID: 2000
    Duration: 1h 30mn
    Bit rate mode: Constant
    Bit rate: 384 Kbps
    Channel(s): 6 channels
    Channel positions: Front: L C R, Side: L R, LFE
    Sampling rate: 48.0 KHz
    Bit depth: 16 bits
    Compression mode: Lossy
    Delay relative to video: 31ms
    Stream size: 250 MiB (18%)
    Alignment: Split accross interleaves
    Interleave, duration: 42 ms (1.00 video frame)
    Interleave, preload duration: 500 ms







    Przepraszamy, ale nie możesz zobaczyć tego tematu. Musisz sie Zarejestrować
    albo Zalogować

    Ostatnio edytowane przez Freddy ; 17-01-2014 o 15:36

  2. Liczba osób które doceniły autora: 3


  3.    Sponsored Links




  4. #2
    Retired
     Info : 
    Dołączył
    Jul 2009
    Posty
    1,285
     Podziękowania : 
    Podziękował: 0
    Doceniono: 341 razy w 44 postach
     UFS Stats Uploady : 
     UFS Stats Konta : 
     Total Upload : 
    P2M UP: 1322 GB
     Total CA : 
    Total CA: 1970 AC
    Tei jest nieaktywny

    Domyślnie

    niezatwierdzone
    Ostatnio edytowane przez Freddy ; 17-01-2014 o 15:36




Informacje o wątku

Użytkownicy przeglądający ten wątek

Aktualnie 1 użytkownik(ów) przegląda ten wątek. (0 zarejestrowany(ch) oraz 1 gości)

Uprawnienia umieszczania postów

  • Nie możesz zakładać nowych tematów
  • Nie możesz pisać wiadomości
  • Nie możesz dodawać załączników
  • Nie możesz edytować swoich postów
  •