Aktualizacje seriali
 



Ogłoszenia
UFS - dotacje
Dotacje SMS
Jak korzystać z forumowej szukajki



Pokaż wyniki od 1 do 2 z 2

Wątek: The Colony [2013][DVDRip][X264][AC3][ENG]

  1. #1
    Retired Awatar Liuk
     Info : 
    Dołączył
    Oct 2007
    Skąd
    nie w UE
    Posty
    1,780
     Podziękowania : 
    Podziękował: 239
    Doceniono: 6,305 razy w 228 postach
     UFS Stats Uploady : 
    Filmy: 128
    Gry: 80
    Programy: 1
    TV's: 13
    Muzyka: 36
    Porno: 294
    Inne: 1
     UFS Stats Konta : 
    Gmail: 15
    Inne: 18
     Total Upload : 
    P2M UP: 1101.4 GB
     Total CA : 
    Total CA: 310 AC
    Liuk jest nieaktywny

    m4ud The Colony [2013][DVDRip][X264][AC3][ENG]

    The Colony (2013)
    The Colony


    Produkcja: Kanada
    Gatunek: Thriller Akcja Sci-Fi
    Data Premiery: 26 kwietnia 2013 (świat)
    Reżyseria: Jeff Renfroe
    Czas trwania: 1 godz. 33 min.

    Więcej informacji: http://www.filmweb.pl/film/Colony,+The-2013-571188


    Akcja filmu rozgrywa się w przyszłości po nadejściu kolejnego zlodowacenia. Ci, którzy przetrwali, żyją pod ziemią w społecznościach pogrążonych w chaosie przemocy i nagminnego kanibalizmu zrodzonego z braku żywności. (filmweb.pl)


    Laurence Fishburne, Kevin Zegers, Bill Paxton, Charlotte Sullivan







    Nazwa uploadu: The Colony 2013 DVDRip X264 AC-3-FooKaS
    Nazwa pliku: The Colony 2013 DVDRip X264 AC-3-FooKaS.mkv
    Rozmiar uploadu: 1841 MB
    Rozmiar segmentu: 8 MB
    Ilość segmentów: 231
    Liczba mirrorów: 8
    Hasło do scalenia: www.mail4us.pl

    NFO:
    NFO:
    INFO:

    Format: Matroska
    Format version: Version 2
    File size: 1.80 GiB
    Duration: 1h 34mn
    Overall bit rate: 2 732 Kbps
    Encoded date: UTC 2013-07-21 10:10:58
    Writing application: mkvmerge v6.2.0 ('Promised Land') built on Apr 28 2013 12:22:01
    Writing library: libebml v1.3.0 + libmatroska v1.4.0

    Video:

    ID: 1
    Format: AVC
    Format/Info: Advanced Video Codec
    Format profile: High@L3.0
    Format settings, CABAC: Yes
    Format settings, ReFrames: 4 frames
    Codec ID: V_MPEG4/ISO/AVC
    Duration: 1h 34mn
    Bit rate: 2 346 Kbps
    Width: 720 pixels
    Height: 400 pixels
    Display aspect ratio: 16:9
    Frame rate mode: Constant
    Frame rate: 23.976 fps
    Color space: YUV
    Chroma subsampling: 4:2:0
    Bit depth: 8 bits
    Scan type: Progressive
    Bits/(Pixel*Frame): 0.340
    Stream size: 1.51 GiB (84%)
    Writing library: x264 core 133 r2334 a3ac64b
    Default: Yes
    Forced: No

    Audio:

    ID: 2
    Format: AC-3
    Format/Info: Audio Coding 3
    Mode extension: CM (complete main)
    Format settings, Endianness: Big
    Codec ID: A_AC3
    Duration: 1h 34mn
    Bit rate mode: Constant
    Bit rate: 384 Kbps
    Channel(s): 6 channels
    Channel positions: Front: L C R, Side: L R, LFE
    Sampling rate: 48.0 KHz
    Bit depth: 16 bits
    Compression mode: Lossy
    Stream size: 259 MiB (14%)
    Language: English
    Default: Yes
    Forced: No

    Text:

    ID: 3
    Format: VobSub
    Muxing mode: zlib
    Codec ID: S_VOBSUB
    Codec ID/Info: The same subtitle format used on DVDs
    Language: English
    Default: No
    Forced: No
    encoder: db420







    Przepraszamy, ale nie możesz zobaczyć tego tematu. Musisz sie Zarejestrować
    albo Zalogować

    Ostatnio edytowane przez kadeshar ; 15-04-2014 o 18:44

  2. Liczba osób które doceniły autora: 1


  3.    Sponsored Links




  4. #2
    Awatar JRK
     Info : 
    Dołączył
    Nov 2007
    Posty
    7,425
     Podziękowania : 
    Podziękował: 2,541
    Doceniono: 16,715 razy w 517 postach
     UFS Stats Uploady : 
    Filmy: 438
    Gry: 51
    Programy: 41
    TV's: 6
    Muzyka: 40
    Inne: 15
    Małe uploady: 1
     UFS Stats Konta : 
    Gmail: 79
    Inne: 177
     Total Upload : 
    P2M UP: 2723.7 GB
     Total CA : 
    Total CA: 8275 AC
    JRK jest nieaktywny

    Domyślnie

    Ostatnio edytowane przez kadeshar ; 15-04-2014 o 18:43

Informacje o wątku

Użytkownicy przeglądający ten wątek

Aktualnie 1 użytkownik(ów) przegląda ten wątek. (0 zarejestrowany(ch) oraz 1 gości)

Uprawnienia umieszczania postów

  • Nie możesz zakładać nowych tematów
  • Nie możesz pisać wiadomości
  • Nie możesz dodawać załączników
  • Nie możesz edytować swoich postów
  •